<?xml version="1.0" standalone="no"?>
<!DOCTYPE svg PUBLIC "-//W3C//DTD SVG 1.1//EN" "http://www.w3.org/Graphics/SVG/1.1/DTD/svg11.dtd" >
<svg xmlns="http://www.w3.org/2000/svg">
<metadata></metadata>
<defs>
<font id="aachenbold" horiz-adv-x="1024" >
<font-face units-per-em="2048" ascent="1638" descent="-410" />
<missing-glyph horiz-adv-x="681" />
<glyph horiz-adv-x="0" />
<glyph unicode="&#xd;" horiz-adv-x="0" />
<glyph horiz-adv-x="0" />
<glyph horiz-adv-x="0" />
<glyph unicode=" "  horiz-adv-x="681" />
<glyph unicode="&#x09;" horiz-adv-x="681" />
<glyph unicode="&#xa0;" horiz-adv-x="681" />
<glyph unicode="!" horiz-adv-x="782" d="M135 1343q0 209 254 209q256 0 256 -209q0 -14 -3 -42.5t-11 -69.5l-139 -754h-205l-140 754q-8 39 -10 67.5t-2 44.5zM186 186q0 41 15.5 78t43 65.5t64.5 45t80 16.5q86 0 145.5 -59.5t59.5 -145.5q0 -43 -16.5 -80.5t-45 -65.5t-65.5 -43t-78 -15t-78 16t-64.5 44 t-44 65.5t-16.5 78.5z" />
<glyph unicode="&#x22;" horiz-adv-x="757" d="M68 877v563h258v-563h-258zM430 877v563h260v-563h-260z" />
<glyph unicode="#" horiz-adv-x="1574" d="M-6 350l100 271h254l74 213h-258l98 270h258l129 366h289l-129 -366h227l129 366h289l-129 -366h256l-100 -270h-252l-76 -213h258l-100 -271h-254l-131 -366h-289l131 366h-227l-131 -366h-289l131 366h-258zM629 621h239l78 213h-239z" />
<glyph unicode="$" horiz-adv-x="1366" d="M111 1061q0 209 94 318.5t309 138.5v114h356v-125q104 -23 191.5 -57.5t165.5 -83.5v-367h-445v68q0 143 -96 143t-96 -104q0 -41 15.5 -65.5t48 -42t82.5 -32t118 -32.5q109 -31 186.5 -63.5t128 -83t74 -128t23.5 -196.5q0 -201 -95.5 -312.5t-300.5 -146.5v-127h-356 v129q-260 45 -381 146v407h459v-82q0 -78 18.5 -121t77.5 -43q98 0 98 129q0 49 -20.5 79t-58 49.5t-91 35t-120.5 35.5q-98 31 -170 61.5t-120 76.5t-71.5 114t-23.5 168z" />
<glyph unicode="%" horiz-adv-x="1744" d="M55 1051v221q0 74 15.5 124t52.5 80.5t97.5 44t152.5 13.5t153.5 -13.5t97 -44t51 -80.5t15.5 -124v-221q0 -74 -15.5 -123t-52 -80t-97 -44t-152.5 -13q-90 0 -151.5 13t-98.5 44t-52.5 81t-15.5 122zM279 0l880 1530h303l-878 -1530h-305zM322 1026q0 -35 9 -52.5 t42 -17.5q29 0 40 16.5t11 53.5v270q0 37 -11.5 54.5t-39.5 17.5q-33 0 -42 -18.5t-9 -53.5v-270zM1051 248v221q0 74 16 124t53 79.5t97.5 43t150.5 13.5q92 0 153.5 -13.5t98.5 -44t52.5 -79.5t15.5 -123v-221q0 -74 -16.5 -123t-53.5 -80t-98.5 -44t-151.5 -13t-150.5 13 t-97.5 43t-53 80t-16 124zM1317 223q0 -37 11 -53t40 -16q31 0 42 17t11 52v271q0 35 -11 52t-42 17q-51 0 -51 -69v-271z" />
<glyph unicode="&#x26;" horiz-adv-x="1320" d="M72 432q0 305 198 379q-184 76 -184 309q0 211 133 321.5t389 110.5q293 0 588 -145v-297h-455q-2 119 -90 119t-88 -139q0 -82 35 -115t117 -33h26v82h455v-82h74v-283h-74v-659h-616q-100 0 -179 6t-141 35q-188 88 -188 391zM561 496q0 -86 31 -123t108 -37h41v323 h-10q-100 0 -135 -34.5t-35 -128.5z" />
<glyph unicode="'" horiz-adv-x="393" d="M68 877v563h258v-563h-258z" />
<glyph unicode="(" horiz-adv-x="845" d="M117 655q0 266 108.5 509t329.5 483l246 -156q-119 -211 -177.5 -415t-58.5 -421t59.5 -420.5t176.5 -412.5l-244 -158q-221 240 -330.5 483.5t-109.5 507.5z" />
<glyph unicode=")" horiz-adv-x="845" d="M45 -178q119 211 177.5 415.5t58.5 417.5q0 217 -59.5 421t-176.5 415l246 156q221 -242 329.5 -483.5t108.5 -508.5q0 -264 -109.5 -506.5t-330.5 -484.5z" />
<glyph unicode="*" horiz-adv-x="854" d="M27 1022l217 125l-217 125l79 151l228 -120v249h182v-249l223 120l86 -151l-223 -125l223 -125l-86 -152l-223 123v-252h-182v252l-228 -123z" />
<glyph unicode="+" horiz-adv-x="1705" d="M254 475v273h459v473h280v-473h459v-273h-459v-475h-280v475h-459z" />
<glyph unicode="," horiz-adv-x="681" d="M137 186q0 39 15.5 76t43 65.5t64.5 45t80 16.5q86 0 145.5 -59.5t59.5 -163.5q0 -199 -258 -428l-86 80q41 53 70.5 102t50.5 94q-86 4 -135.5 51.5t-49.5 120.5z" />
<glyph unicode="-" horiz-adv-x="782" d="M90 393v369h602v-369h-602z" />
<glyph unicode="." horiz-adv-x="681" d="M137 184q0 41 15.5 78t43 65.5t64.5 45t80 16.5q86 0 145.5 -59.5t59.5 -145.5q0 -43 -16.5 -79.5t-45 -64.5t-65.5 -43t-78 -15t-78 16t-64.5 44t-44 64.5t-16.5 77.5z" />
<glyph unicode="/" horiz-adv-x="663" d="M-82 -190l442 1712h338l-444 -1712h-336z" />
<glyph unicode="0" horiz-adv-x="1366" d="M115 526v473q0 152 26.5 257.5t91 171t174 95t275.5 29.5t275.5 -29.5t175 -95t92 -171t26.5 -257.5v-473q0 -152 -26.5 -256t-92 -169.5t-175 -95.5t-275.5 -30t-274.5 30t-174 95.5t-92 170t-26.5 255.5zM588 451q0 -76 19.5 -113t74.5 -37q53 0 73.5 37t20.5 113v628 q0 76 -19.5 114t-74.5 38t-74.5 -38t-19.5 -114v-628z" />
<glyph unicode="1" horiz-adv-x="1366" d="M387 0v270q35 18 46 51t11 89v712q0 55 -11 89t-46 53v266h533v-1120q0 -55 9 -88t46 -52v-270h-588z" />
<glyph unicode="2" horiz-adv-x="1366" d="M113 0v342q0 102 16 175t55 128t105.5 101.5t169.5 95.5q80 39 140 66.5t102 54t62.5 58.5t20.5 81q0 59 -26.5 92t-67.5 33q-100 0 -100 -144v-102h-447v412q129 84 267.5 120.5t300.5 36.5q285 0 417 -117.5t132 -361.5q0 -109 -27 -186.5t-94 -143.5 q-47 -47 -149.5 -98t-250.5 -127q-84 -43 -126 -78t-42 -98v-14h78q39 0 64.5 7t41 23.5t21.5 46t6 72.5h447v-475h-1116z" />
<glyph unicode="3" horiz-adv-x="1366" d="M123 131v422h455v-94q0 -76 16 -117t76 -41q100 0 100 160q0 55 -12.5 90t-36 53.5t-59 24.5t-84.5 6h-138v297h138q49 0 84.5 6t57 22.5t32 48t10.5 85.5q0 131 -100 131q-84 0 -84 -135v-76h-455v366q113 84 257 127t316 43q539 0 539 -434q0 -250 -205 -313 q219 -72 219 -354q0 -244 -132 -359t-429 -115q-176 0 -315.5 37t-249.5 119z" />
<glyph unicode="4" horiz-adv-x="1366" d="M92 373v366l529 791h544v-846h103v-311h-103q2 -45 14.5 -68.5t47.5 -34.5v-270h-592v270q41 10 58.5 32t17.5 63v8h-619zM465 684h256v389z" />
<glyph unicode="5" horiz-adv-x="1366" d="M154 154v421h452v-114v-4q0 -78 20.5 -116t73.5 -38q86 0 86 119v43v141q0 135 -94 135q-53 0 -86 -61h-452v850h1073v-416h-447q-4 55 -29.5 77.5t-78.5 22.5h-66v-208q41 16 97.5 28.5t130.5 12.5q123 0 205.5 -32t133 -97.5t71 -165t20.5 -234.5q0 -141 -29 -242.5 t-93.5 -168t-169 -98.5t-257.5 -32q-319 0 -561 177z" />
<glyph unicode="6" horiz-adv-x="1366" d="M115 526v473q0 143 25.5 248t87 172.5t165 100t258.5 32.5q328 0 563 -166v-335h-438v28q0 76 -19.5 114t-74.5 38t-74.5 -38t-19.5 -114v-135q55 23 117.5 32t128.5 9q215 0 316 -121t101 -364q0 -145 -29.5 -245.5t-97 -162t-176 -89.5t-266.5 -28q-166 0 -274.5 30 t-174 95.5t-92 170t-26.5 255.5zM588 451q0 -76 19.5 -113t74.5 -37q53 0 73.5 37t20.5 113v90q0 76 -20.5 112.5t-73.5 36.5t-73.5 -37t-20.5 -112v-90z" />
<glyph unicode="7" horiz-adv-x="1366" d="M162 907v623h1091v-277l-460 -1253h-504l440 1204h-22q-49 0 -79 -8t-47.5 -26.5t-22.5 -51.5t-5 -82v-129h-391z" />
<glyph unicode="8" horiz-adv-x="1366" d="M94 442q0 275 213 357q-104 43 -145 113.5t-41 197.5q0 236 136 339t425 103q291 0 426 -103t135 -339q0 -127 -40 -197.5t-144 -113.5q104 -41 157.5 -126t53.5 -231q0 -240 -144.5 -353.5t-443.5 -113.5t-443.5 114t-144.5 353zM588 451q0 -76 19.5 -113t74.5 -37 q53 0 73.5 37t20.5 113v47q0 76 -20.5 112.5t-73.5 36.5t-73.5 -37t-20.5 -112v-47zM588 1079q0 -76 19.5 -112.5t74.5 -36.5t74.5 35.5t19.5 113.5q0 76 -20.5 114t-73.5 38q-55 0 -74.5 -38t-19.5 -114z" />
<glyph unicode="9" horiz-adv-x="1366" d="M115 1034q0 143 30.5 241.5t98 160t175 89t263.5 27.5q166 0 275.5 -29.5t175 -95t92 -170t26.5 -256.5v-473q0 -145 -25.5 -249.5t-88 -172t-166 -100.5t-258.5 -33q-332 0 -563 154v330h438v-21q0 -72 21.5 -105.5t72.5 -33.5q55 0 74.5 37t19.5 115v124 q-51 -29 -109.5 -40t-127.5 -11q-221 0 -322.5 126t-101.5 386zM588 971q0 -76 19.5 -113t74.5 -37q53 0 73.5 37t20.5 113v106q0 76 -20.5 113t-73.5 37t-73.5 -37t-20.5 -113v-106z" />
<glyph unicode=":" horiz-adv-x="681" d="M137 184q0 41 15.5 78t43 65.5t64.5 45t80 16.5q86 0 145.5 -59.5t59.5 -145.5q0 -43 -16.5 -79.5t-45 -64.5t-65.5 -43t-78 -15t-78 16t-64.5 44t-44 64.5t-16.5 77.5zM137 793q0 41 15.5 77.5t43 65.5t64.5 45t80 16q86 0 145.5 -59t59.5 -145q0 -43 -16.5 -80 t-45 -64.5t-65.5 -43t-78 -15.5t-78 16.5t-64.5 44t-44 64.5t-16.5 78z" />
<glyph unicode=";" horiz-adv-x="681" d="M137 186q0 39 15.5 76t43 65.5t64.5 45t80 16.5q86 0 145.5 -59.5t59.5 -163.5q0 -199 -258 -428l-86 80q41 53 70.5 102t50.5 94q-86 4 -135.5 51.5t-49.5 120.5zM137 793q0 41 15.5 77.5t43 65.5t64.5 45t80 16q86 0 145.5 -59t59.5 -145q0 -43 -16.5 -80t-45 -64.5 t-65.5 -43t-78 -15.5t-78 16.5t-64.5 44t-44 64.5t-16.5 78z" />
<glyph unicode="&#x3c;" horiz-adv-x="1705" d="M264 471v281l1178 487v-301l-801 -328l801 -327v-299z" />
<glyph unicode="=" horiz-adv-x="1705" d="M254 240v272h1198v-272h-1198zM254 711v272h1198v-272h-1198z" />
<glyph unicode="&#x3e;" horiz-adv-x="1705" d="M264 -16v299l801 327l-801 328v301l1178 -487v-281z" />
<glyph unicode="?" horiz-adv-x="1269" d="M84 1006v387q117 84 254 121.5t309 37.5q539 0 539 -448q0 -92 -17.5 -158.5t-68.5 -124.5q-41 -47 -102.5 -80.5t-131.5 -74.5q-31 -18 -51 -35t-31.5 -37.5t-16.5 -47t-5 -65.5h-438v115q0 86 11 138t35.5 86t64.5 59.5t100 60.5q80 47 127 85t47 99q0 47 -27 76 t-68 29q-43 0 -67.5 -34t-24.5 -99v-90h-438zM356 184q0 41 16.5 78t44 65.5t64.5 45t80 16.5q86 0 144.5 -59.5t58.5 -145.5q0 -43 -16.5 -79.5t-44 -64.5t-64.5 -43t-78 -15t-78 16t-65.5 44t-45 64.5t-16.5 77.5z" />
<glyph unicode="@" horiz-adv-x="2048" d="M70 520q0 178 55 333t164 284q150 178 360.5 272t462.5 94q195 0 354.5 -54t273 -152.5t176 -234.5t62.5 -298q0 -174 -67.5 -316.5t-196.5 -240.5q-72 -57 -155.5 -85t-172.5 -28q-215 0 -233 154q-59 -78 -127 -115t-162 -37q-344 0 -344 350q0 125 39 230.5 t106.5 182.5t158.5 120t196 43q152 0 221 -111l49 82h242l-156 -626q-4 -20 -4 -31q0 -49 47 -49q59 0 118.5 36.5t108 100t78 149.5t29.5 187q0 117 -44 213t-127 165.5t-200.5 108.5t-265.5 39q-145 0 -268 -36t-223 -105q-154 -109 -238 -268.5t-84 -350.5 q0 -147 51.5 -266t147.5 -203t231 -129t305 -45q322 0 586 187l115 -160q-164 -123 -341 -181.5t-382 -58.5q-193 0 -357.5 54.5t-291.5 156.5q-297 238 -297 639zM801 440q0 -74 31.5 -112.5t85.5 -38.5q72 0 129 53t79 152l48 194q-8 70 -43 106.5t-91 36.5 q-47 0 -91 -31.5t-76.5 -84.5t-52 -124t-19.5 -151z" />
<glyph unicode="A" horiz-adv-x="1339" d="M53 0v270q18 6 35.5 38t28.5 85l207 1129h671l234 -1129q23 -106 71 -123v-270h-593v270q51 16 51 82q0 6 -2 15.5t-6 25.5h-232q-2 -14 -4 -25.5t-2 -21.5q0 -68 68 -76v-270h-527zM553 664h158l-86 540z" />
<glyph unicode="B" horiz-adv-x="1359" d="M88 0v270q35 18 45 51t10 89v706q0 55 -10 88t-45 51v267h674q135 0 232.5 -19.5t160 -65.5t93 -122t30.5 -189q0 -135 -62.5 -219t-179.5 -106q266 -51 267 -361q0 -129 -33 -214t-100.5 -135t-168 -70.5t-235.5 -20.5h-678zM608 317q12 -2 24.5 -2h24.5q158 0 158 168 q0 164 -178 164h-29v-330zM608 934q12 -2 24.5 -2h24.5q150 0 150 137q0 143 -139 143q-16 0 -26.5 -1t-18.5 -1h-15v-276z" />
<glyph unicode="C" horiz-adv-x="1294" d="M98 512v496q0 141 27 244.5t88 170t162.5 98t251.5 31.5q176 0 322.5 -43t260.5 -125v-421h-456v116q0 76 -18.5 113t-71.5 37t-72 -37t-19 -113v-633q0 -76 18.5 -112.5t72.5 -36.5q53 0 71.5 37t18.5 112v191h456v-508q-104 -84 -244.5 -122t-324.5 -38q-154 0 -258 31 t-167.5 96.5t-90.5 168t-27 247.5z" />
<glyph unicode="D" horiz-adv-x="1357" d="M74 0v270q35 18 45 51t10 89v706q0 55 -10 88t-45 51v267h581q174 0 291 -23.5t186.5 -84t98.5 -164t29 -261.5v-457q0 -158 -29 -260t-98.5 -162.5t-186.5 -85t-291 -24.5h-581zM604 332h55q78 0 102.5 34.5t24.5 122.5v558q0 82 -23.5 112.5t-103.5 30.5h-55v-858z" />
<glyph unicode="E" horiz-adv-x="1312" d="M88 0v270q35 18 46 51t11 89v706q0 55 -11 88t-46 51v267h1139v-504h-436v43q0 80 -27 109.5t-107 29.5h-41v-270h302v-295h-302v-307q10 -2 20.5 -2h20.5q78 0 107 40t29 134v25.5t-2 29.5h436v-555h-1139z" />
<glyph unicode="F" horiz-adv-x="1224" d="M88 0v270q35 18 45 51t10 89v706q0 55 -10 88t-45 51v267h1104v-531h-410v45q0 86 -23.5 122t-105.5 36h-35v-287h300v-299h-300v-198q0 -63 13.5 -95t60.5 -45v-270h-604z" />
<glyph unicode="G" horiz-adv-x="1312" d="M98 512v496q0 141 27 244.5t88 170t162.5 98t251.5 31.5q176 0 322.5 -43t260.5 -125v-391h-456v86q0 76 -18.5 113t-71.5 37t-72 -37t-19 -113v-633q0 -76 18.5 -112.5t72.5 -36.5q53 0 71.5 37t18.5 112v113h-76v303h532v-733q-104 -84 -244.5 -122t-324.5 -38 q-154 0 -258 31t-167.5 96.5t-90.5 168t-27 247.5z" />
<glyph unicode="H" horiz-adv-x="1419" d="M88 0v270q35 18 45 51t10 89v706q0 55 -10 88t-45 51v267h582v-267q-35 -16 -43.5 -47.5t-8.5 -91.5v-182h183v182q0 59 -8.5 91t-42.5 48v267h581v-267q-37 -18 -46 -52t-9 -87v-706q0 -55 9 -88t46 -52v-270h-581v270q35 14 43 47t8 93v231h-183v-231q0 -59 8.5 -92 t43.5 -48v-270h-582z" />
<glyph unicode="I" horiz-adv-x="778" d="M94 0v270q35 18 46.5 51t11.5 89v706q0 55 -11.5 88t-46.5 51v267h588v-267q-37 -18 -46 -52t-9 -87v-706q0 -55 9 -88t46 -52v-270h-588z" />
<glyph unicode="J" horiz-adv-x="831" d="M43 6v268q63 2 99 17.5t52.5 49.5t20.5 85t4 125v584q0 51 -12 79.5t-55 40.5v267h598v-267q-39 -20 -48.5 -48.5t-9.5 -76.5v-577q0 -125 -6 -221t-47 -168q-100 -182 -365 -182q-53 0 -110.5 5t-120.5 19z" />
<glyph unicode="K" horiz-adv-x="1394" d="M88 0v270q35 18 45 51t10 89v706q0 55 -10 88t-45 51v267h582v-267q-35 -16 -43.5 -47.5t-8.5 -91.5v-242l140 283q23 47 28 83t5 65v14v203h532v-267q-16 -12 -30.5 -28.5t-26.5 -34.5l-244 -363l248 -452q18 -35 36.5 -61.5t45.5 -45.5v-270h-561v197q0 72 -14.5 108.5 t-26.5 67.5l-132 309v-272q0 -59 8.5 -92t43.5 -48v-270h-582z" />
<glyph unicode="L" horiz-adv-x="1255" d="M88 0v270q35 18 45 51t10 89v706q0 55 -10 88t-45 51v267h604v-267q-47 -8 -60.5 -47t-13.5 -116v-762h29q45 0 70.5 10t38 31.5t15.5 55.5t3 83v229h414v-739h-1100z" />
<glyph unicode="M" horiz-adv-x="1691" d="M88 0v270q35 18 45 51t10 89v706q0 55 -10 88t-45 51v267h625l139 -650l139 650h613v-267q-37 -18 -47.5 -52t-10.5 -87v-706q0 -55 10.5 -88t47.5 -52v-270h-549v270q35 14 43 47t8 93v497l-209 -907h-184l-219 907v-497q0 -59 9 -92t44 -48v-270h-459z" />
<glyph unicode="N" horiz-adv-x="1376" d="M74 0v270q35 18 46 51t11 89v706q0 55 -11 88t-46 51v267h524l289 -770v364q0 59 -10.5 91t-55.5 48v267h496v-267q-37 -18 -46 -52t-9 -87v-1116h-463l-295 725v-315q0 -59 9 -92t48 -48v-270h-487z" />
<glyph unicode="O" horiz-adv-x="1335" d="M98 512v496q0 150 29 254t94.5 168.5t175 93t271.5 28.5t270.5 -28.5t174 -93t94 -169t28.5 -253.5v-496q0 -152 -28.5 -255t-94 -166.5t-174.5 -92.5t-270 -29q-162 0 -271.5 29t-175 92.5t-94.5 166.5t-29 255zM573 446q0 -76 19.5 -112.5t75.5 -36.5q53 0 73.5 36 t20.5 113v633q0 76 -20.5 113t-73.5 37q-55 0 -75 -37t-20 -113v-633z" />
<glyph unicode="P" horiz-adv-x="1331" d="M88 0v270q35 18 45 51t10 89v706q0 55 -10 88t-45 51v267h651q166 0 268.5 -32t161 -99.5t79 -175t20.5 -259.5q0 -147 -27 -247.5t-88 -161t-161.5 -87t-246.5 -26.5h-135v-24q0 -61 13.5 -93t66.5 -47v-270h-602zM610 754h31q88 0 123 31.5t35 121.5v135q0 92 -32 127 t-126 35h-31v-450z" />
<glyph unicode="Q" horiz-adv-x="1335" d="M98 512v496q0 150 29 254t94.5 168.5t175 93t271.5 28.5t270.5 -28.5t174 -93t94 -169t28.5 -253.5v-496q0 -133 -18.5 -225t-71.5 -158q47 -47 102 -84l-155 -272q-96 39 -185.5 85t-171.5 111h-57q-164 0 -275.5 28t-179 90.5t-96.5 166.5t-29 258zM573 446 q0 -76 19.5 -112.5t75.5 -36.5q53 0 73.5 36t20.5 113v633q0 76 -20.5 113t-73.5 37q-55 0 -75 -37t-20 -113v-633z" />
<glyph unicode="R" horiz-adv-x="1374" d="M88 0v270q35 18 45 51t10 89v706q0 55 -10 88t-45 51v267h666q137 0 237.5 -19.5t166 -66.5t97 -126t31.5 -198q0 -143 -53 -228t-170 -120q66 -18 103.5 -43t57 -60.5t25.5 -85t8 -114.5q2 -80 8.5 -124t49.5 -67v-270h-506q-23 90 -25 186.5t-4 204.5q0 55 -5 93 t-18.5 62.5t-41 36t-74.5 11.5h-27v-184q0 -59 8.5 -91t49.5 -49v-270h-584zM614 895h48q82 0 112.5 34t30.5 126q0 90 -36 121.5t-130 31.5h-25v-313z" />
<glyph unicode="S" horiz-adv-x="1306" d="M84 1069q0 246 131 364.5t416 118.5q322 0 571 -168v-378h-446v69q0 150 -97 150q-96 0 -96 -107q0 -41 15.5 -66.5t47 -44t82 -32.5t119.5 -35q109 -31 187 -64.5t128 -86t73.5 -132t23.5 -204.5q0 -248 -138 -366t-425 -118q-186 0 -329.5 44t-240.5 120v418h461v-84 q0 -84 17.5 -126t79.5 -42q45 0 71.5 34t26.5 99q0 51 -20.5 82t-58.5 51.5t-91 35.5t-119 36q-98 31 -171 62.5t-121 78.5t-72.5 116t-24.5 175z" />
<glyph unicode="T" horiz-adv-x="1404" d="M47 831v691h1311v-691h-334v259q0 63 -17.5 89.5t-76.5 30.5v-800q0 -57 14 -89t68 -51v-270h-619v270q53 18 66.5 50t13.5 90v800q-59 -4 -76.5 -30.5t-17.5 -89.5v-259h-332z" />
<glyph unicode="U" horiz-adv-x="1345" d="M66 1255v267h583v-267q-35 -16 -44 -47.5t-9 -91.5v-670q0 -76 19.5 -112.5t74.5 -36.5q53 0 73.5 36t20.5 113v670q0 59 -9 91t-44 48v267h543v-267q-37 -18 -47 -52t-10 -87v-536q0 -123 -7.5 -218.5t-44.5 -164.5q-63 -117 -186 -172.5t-313 -55.5q-326 0 -461 187 q-49 72 -60.5 150.5t-11.5 172.5v80v557q0 57 -13.5 89t-53.5 50z" />
<glyph unicode="V" horiz-adv-x="1284" d="M39 1255v267h586v-267q-45 -14 -45 -73q0 -4 1 -8.5t1 -14.5q0 -4 2 -18.5t6 -42.5l102 -664l86 682q4 25 4 38v15q0 35 -9 55.5t-42 30.5v267h516v-267q-45 -20 -59 -98l-211 -1157h-643l-228 1120q-10 51 -24 84t-43 51z" />
<glyph unicode="W" horiz-adv-x="1802" d="M37 1255v267h581v-267q-43 -27 -43 -81q0 -10 1.5 -21.5t3.5 -28.5l55 -499l139 897h330l158 -897l41 467q2 27 3 42t1 19q0 39 -10.5 62.5t-39.5 39.5v267h510v-267q-29 -25 -40 -53t-17 -65l-209 -1137h-471l-121 788l-123 -788h-469l-208 1098q-6 35 -18.5 72.5 t-53.5 84.5z" />
<glyph unicode="X" horiz-adv-x="1267" d="M29 0v270q29 23 44 46.5t29 45.5l271 435l-254 385q-16 23 -31.5 41t-38.5 32v267h535v-136q0 -10 -1 -19t-1 -19q0 -18 7 -43t29 -72l54 -107l45 105q8 20 22.5 52t14.5 103v136h479v-267q-43 -31 -66 -65l-258 -412l275 -432q16 -23 28.5 -42t32.5 -34v-270h-567v180 v23q0 23 -4 49.5t-23 62.5l-69 136l-60 -136q-16 -41 -19 -73.5t-3 -61.5v-180h-471z" />
<glyph unicode="Y" horiz-adv-x="1204" d="M6 1255v267h535v-176q0 -57 3 -108.5t25 -100.5l62 -138l61 142q33 78 33 190v191h473v-267q-35 -23 -59 -69l-301 -588v-188q0 -57 12 -89t57 -51v-270h-614v270q43 18 56 50t13 90v188l-296 586q-16 35 -60 71z" />
<glyph unicode="Z" horiz-adv-x="1294" d="M72 0v274l596 924h-82q-51 0 -83 -7t-49.5 -26.5t-23.5 -53.5t-6 -85v-106h-338v602h1145v-269l-588 -925h82q102 0 134 46t32 156v105h350v-635h-1169z" />
<glyph unicode="[" horiz-adv-x="845" d="M184 -207v1729h625v-133h-227v-1463h227v-133h-625z" />
<glyph unicode="\" horiz-adv-x="663" d="M-33 1522h336l442 -1712h-335z" />
<glyph unicode="]" horiz-adv-x="845" d="M37 -74h225v1463h-225v133h625v-1729h-625v133z" />
<glyph unicode="^" horiz-adv-x="2048" d="M412 897l442 565h338l442 -565h-303l-307 309l-309 -309h-303z" />
<glyph unicode="_" d="M0 -201h1024v-282h-1024v282z" />
<glyph unicode="`" d="M207 1618h287l192 -371h-154z" />
<glyph unicode="a" horiz-adv-x="1202" d="M72 303q0 96 33.5 157.5t106.5 105.5t184.5 80t269.5 81v21q0 131 -80 131t-80 -131v-21h-385v264q88 68 219 108t291 40q242 0 344 -100.5t102 -311.5v-342q0 -55 11.5 -87t41.5 -46v-252h-446l-14 96q-53 -61 -122 -87.5t-165 -26.5q-147 0 -229 82.5t-82 238.5z M494 344q0 -80 69 -80q55 0 103 43v176q-88 -35 -130 -61.5t-42 -77.5z" />
<glyph unicode="b" horiz-adv-x="1216" d="M76 1272v250h469v-451q66 35 124 47t124 12q176 0 253.5 -98t77.5 -297v-295q0 -125 -23.5 -212t-79.5 -142t-150.5 -79.5t-235.5 -24.5q-299 0 -508 153v1012q0 53 -8 81.5t-43 43.5zM547 285q43 -12 71 -13q59 0 75 36t16 106v284q0 70 -17.5 104t-64.5 34 q-16 0 -37 -6.5t-43 -14.5v-530z" />
<glyph unicode="c" horiz-adv-x="1128" d="M90 389v340q0 109 23.5 185.5t77 126t141.5 73t215 23.5q303 0 506 -144v-299h-385v54q0 66 -16.5 98.5t-65.5 32.5q-47 0 -64.5 -33t-17.5 -98v-377q0 -68 17.5 -100.5t64.5 -32.5t64.5 33.5t17.5 99.5v100h385v-346q-174 -143 -494 -143q-133 0 -222 22.5t-144.5 70.5 t-79 126t-23.5 188z" />
<glyph unicode="d" horiz-adv-x="1210" d="M90 362v349q0 102 12.5 181t46 131t95 78.5t157.5 26.5q59 0 127 -15t138 -48v57q0 66 -10.5 102t-43.5 46v252h471v-1151q0 -47 10.5 -76t45.5 -43v-252h-455v76q-127 -86 -287 -86q-90 0 -149.5 23.5t-94 69.5t-49 115.5t-14.5 163.5zM506 436q0 -74 18.5 -110.5 t77.5 -36.5q29 0 64 14v512q-37 18 -70 19q-33 0 -50.5 -10.5t-26.5 -31t-11 -48t-2 -64.5v-244z" />
<glyph unicode="e" horiz-adv-x="1171" d="M90 389v340q0 117 25.5 194.5t84 126t154 68t232.5 19.5q139 0 234 -22.5t153.5 -75t84 -135.5t25.5 -204v-225h-579v-104q0 -68 17.5 -100.5t64.5 -32.5t64.5 33.5t17.5 99.5v29h415v-275q-82 -70 -213 -106.5t-309 -36.5q-131 0 -221 21.5t-145.5 70.5t-80 127 t-24.5 188zM504 707h164v41q0 66 -16.5 98.5t-65.5 32.5q-47 0 -64.5 -33t-17.5 -98v-41z" />
<glyph unicode="f" horiz-adv-x="786" d="M125 0v252q31 10 40 47t9 111v452h-49v256h49v43q0 199 83 290t275 91q119 0 218 -31v-241q-12 0 -21.5 1t-17.5 1q-119 0 -119 -139v-15h131v-256h-131v-452q0 -74 9 -111t46 -47v-252h-522z" />
<glyph unicode="g" horiz-adv-x="1218" d="M90 432v324q0 94 14.5 163.5t49 116.5t94 70.5t149.5 23.5q158 0 287 -88v76h455v-252q-35 -16 -45.5 -43.5t-10.5 -74.5v-598v-72q0 -94 -6 -167t-35 -128q-109 -209 -415 -209q-145 0 -273.5 29.5t-238.5 87.5v272h391v-8q0 -115 78 -115q51 0 66.5 41t15.5 119v78 q-66 -33 -135.5 -48.5t-135.5 -15.5q-94 0 -153.5 28t-93 80t-46 130t-12.5 180zM506 467q0 -37 2 -64.5t11 -48t26.5 -31t50.5 -10.5t70 19v485q-35 12 -64 12q-59 0 -77.5 -36.5t-18.5 -110.5v-215z" />
<glyph unicode="h" horiz-adv-x="1255" d="M84 0v252q55 14 55 143v756q0 47 -10 74.5t-45 44.5v252h471v-467q123 75 266 75h4q174 0 241 -90t67 -274v-369q0 -63 7 -97t42 -48v-252h-445q-16 78 -19 187.5t-3 250.5v244q0 74 -17.5 111.5t-76.5 37.5q-27 0 -66 -14v-418q0 -61 11.5 -96t39.5 -51v-252h-522z" />
<glyph unicode="i" horiz-adv-x="692" d="M88 0v252q55 14 55 141v355q0 47 -10 74.5t-45 43.5v252h473v-719q0 -61 10.5 -96t38.5 -51v-252h-522zM111 1358q0 72 61 122t162 50q98 0 160.5 -50t62.5 -122t-61.5 -122t-161.5 -50t-161.5 50t-61.5 122z" />
<glyph unicode="j" horiz-adv-x="692" d="M16 -150q47 2 73 17.5t38 47.5t14 82t2 122v629q0 47 -10 74.5t-45 43.5v252h473v-993v-82q0 -98 -5 -174t-32 -129q-82 -166 -299 -166q-82 0 -209 29v247zM111 1358q0 72 61 122t162 50q98 0 160.5 -50t62.5 -122t-61.5 -122t-161.5 -50t-161.5 50t-61.5 122z" />
<glyph unicode="k" horiz-adv-x="1204" d="M88 0v252q55 14 55 143v756q0 47 -10 74.5t-45 44.5v252h473v-805l90 110q35 41 41 72t6 66v12v141h465v-252q-23 -10 -42 -24.5t-40 -36.5l-147 -174l164 -299q37 -68 86 -80v-252h-355q-33 41 -55 86t-45 92l-168 363v-142q0 -61 10.5 -96t38.5 -51v-252h-522z" />
<glyph unicode="l" horiz-adv-x="692" d="M88 0v252q55 14 55 141v758q0 47 -10 74.5t-45 44.5v252h473v-1123q0 -61 10.5 -96t38.5 -51v-252h-522z" />
<glyph unicode="m" horiz-adv-x="1835" d="M84 0v252q55 14 55 141v355q0 47 -10 74.5t-45 43.5v252h455v-76q129 88 286 88q184 0 258 -114q70 55 152 84.5t168 29.5q174 0 240.5 -90t66.5 -274v-369q0 -63 8 -97t43 -48v-252h-446q-16 78 -19.5 187.5t-3.5 250.5v244q0 74 -17.5 111.5t-76.5 37.5q-14 0 -30.5 -4 t-34.5 -10v-420q0 -63 7 -97t42 -48v-252h-445q-16 78 -19 187.5t-3 250.5v244q0 74 -17.5 111.5t-76.5 37.5q-27 0 -66 -14v-418q0 -61 11.5 -96t39.5 -51v-252h-522z" />
<glyph unicode="n" horiz-adv-x="1255" d="M84 0v252q55 14 55 141v355q0 47 -10 74.5t-45 43.5v252h455v-76q129 88 286 88q174 0 241 -90t67 -274v-369q0 -63 7 -97t42 -48v-252h-445q-16 78 -19 187.5t-3 250.5v244q0 74 -17.5 111.5t-76.5 37.5q-27 0 -66 -14v-418q0 -61 11.5 -96t39.5 -51v-252h-522z" />
<glyph unicode="o" horiz-adv-x="1173" d="M90 389v340q0 117 25.5 194.5t84 125t152.5 68t234 20.5q139 0 234 -19.5t153.5 -68t84 -126t25.5 -194.5v-340q0 -117 -25.5 -194.5t-84 -124.5t-153.5 -67.5t-234 -20.5t-233.5 20.5t-153 67.5t-84 124.5t-25.5 194.5zM504 371q0 -68 17.5 -100.5t64.5 -32.5t64.5 33.5 t17.5 99.5v377q0 66 -16.5 98.5t-65.5 32.5q-47 0 -64.5 -33t-17.5 -98v-377z" />
<glyph unicode="p" horiz-adv-x="1218" d="M80 -147q53 14 53 143v752q0 47 -9 74.5t-44 43.5v252h455v-76q129 88 284 88q90 0 149.5 -23.5t94.5 -70.5t49 -116.5t14 -163.5v-348q0 -102 -12 -181.5t-46 -131.5t-95.5 -78.5t-157.5 -26.5q-59 0 -128 15t-136 48v-53q0 -66 11 -101.5t44 -45.5v-250h-526v250z M551 303q37 -18 70 -18q63 0 76.5 40t13.5 113v244q0 74 -18.5 110.5t-78.5 36.5q-31 0 -63 -12v-514z" />
<glyph unicode="q" horiz-adv-x="1214" d="M90 408v348q0 94 14.5 163.5t50 116.5t95 70.5t149.5 23.5q156 0 285 -88v76h401v-1122q0 -129 54 -143v-250h-527v250q33 10 44.5 45.5t11.5 101.5v53q-68 -33 -136.5 -48t-128.5 -15q-96 0 -157.5 26.5t-96 78.5t-47 131t-12.5 182zM508 438q0 -37 2 -64.5t10 -48 t25.5 -30.5t50.5 -10q35 0 72 18v514q-35 12 -66 12q-59 0 -76.5 -36.5t-17.5 -110.5v-244z" />
<glyph unicode="r" horiz-adv-x="815" d="M84 0v252q55 14 55 141v355q0 47 -10 74.5t-45 43.5v252h446v-88q74 111 183 111q20 0 51 -6v-379h-45q-164 0 -164 -211v-146q0 -66 11.5 -100.5t43.5 -46.5v-252h-526z" />
<glyph unicode="s" horiz-adv-x="1118" d="M74 791q0 346 450 346q152 0 279 -37t227 -109v-264h-389v55q0 106 -82 107q-37 0 -61.5 -24.5t-24.5 -59.5q0 -55 53.5 -75.5t139.5 -39.5q98 -23 170.5 -46t120 -61t71 -93.5t23.5 -139.5q0 -190 -112 -279t-353 -89q-293 0 -500 145v293h395v-51q0 -59 16.5 -93 t65.5 -34q39 0 61.5 23.5t22.5 62.5q0 63 -57.5 87.5t-163.5 49.5q-90 20 -156.5 43.5t-109.5 59.5t-64.5 89.5t-21.5 133.5z" />
<glyph unicode="t" horiz-adv-x="772" d="M80 862v256h51v213l418 117v-330h139v-256h-139v-385q0 -59 2 -102t15.5 -71t42 -41t79.5 -13v-246q-98 -24 -197 -24h-8q-104 0 -171.5 22.5t-107.5 68.5t-56.5 115.5t-16.5 165.5v510h-51z" />
<glyph unicode="u" horiz-adv-x="1255" d="M76 866v252h444q16 -84 19.5 -192.5t3.5 -245.5v-244q0 -74 17.5 -110.5t76.5 -36.5q14 0 30.5 2t34.5 10v418q0 63 -10 97t-39 50v252h467v-747q0 -47 9.5 -76t44.5 -43v-252h-455v76q-127 -86 -285 -86q-88 0 -147.5 22.5t-95 67.5t-51 113.5t-15.5 160.5v367 q0 63 -7 97t-42 48z" />
<glyph unicode="v" horiz-adv-x="1114" d="M23 868v250h516v-250q-31 -10 -31 -53q0 -23 6 -55l80 -404l78 404q6 37 6 51q0 43 -37 57v250h453v-250q-39 -18 -64 -100l-227 -768h-490l-219 748q-14 47 -28.5 76.5t-42.5 43.5z" />
<glyph unicode="w" horiz-adv-x="1658" d="M31 866v252h520v-252q-37 -12 -37 -51q0 -4 2 -19.5t6 -43.5l47 -279l158 645h270l162 -645l49 285q4 18 4 28.5v14.5q0 23 -7 36t-31 29v252h446v-252q-29 -20 -44 -47.5t-26 -68.5l-207 -750h-403l-117 508l-116 -508h-402l-205 752q-25 88 -69 114z" />
<glyph unicode="x" horiz-adv-x="1146" d="M59 0v252q39 12 70 49l221 270l-188 228q-39 47 -86 67v252h465v-88q0 -41 3 -72.5t23 -60.5l41 -59l35 43q25 29 34 64.5t9 80.5v92h401v-252q-39 -18 -77 -63l-191 -228l209 -264q16 -20 32.5 -34.5t39.5 -24.5v-252h-479v113q0 35 -4.5 68.5t-26.5 68.5l-49 74 l-43 -68q-25 -39 -29 -68.5t-4 -58.5v-14v-115h-406z" />
<glyph unicode="y" horiz-adv-x="1138" d="M37 868v250h518v-250q-37 -16 -37 -55q0 -10 6 -41l88 -391l76 381q4 16 4 28.5v20.5q0 43 -41 57v250h451v-250q-39 -25 -64 -110l-239 -819q-53 -184 -142.5 -270.5t-244.5 -86.5q-94 0 -193 29v242q127 2 164 110l-285 811q-10 27 -25.5 52.5t-35.5 41.5z" />
<glyph unicode="z" horiz-adv-x="1112" d="M70 0v266l489 598h-67q-74 0 -97.5 -19.5t-23.5 -92.5v-52h-289v418h973v-254l-492 -604h62q43 0 69.5 4t42 16.5t20.5 36t5 60.5v53h305v-430h-997z" />
<glyph unicode="{" d="M145 389v283q10 0 18.5 -1t16.5 -1q115 0 160 53t45 178v258q0 102 17.5 169t91.5 104q59 29 140 37t191 8h80v-285q-12 0 -22.5 1t-20.5 1q-47 0 -75.5 -7t-45 -25.5t-21.5 -49.5t-5 -76v-239q0 -61 -9.5 -106.5t-34 -77t-66.5 -51t-107 -32.5q66 -12 107.5 -31.5 t66 -51t34 -75.5t9.5 -106v-241q0 -45 5 -75t21.5 -48.5t44 -25.5t74.5 -7q10 0 21.5 1t23.5 1v-285h-80q-111 0 -192.5 8.5t-138.5 36.5q-74 37 -91.5 102.5t-17.5 168.5v258q0 125 -45 178t-160 53q-8 0 -16 -1t-19 -1z" />
<glyph unicode="|" d="M373 -483v2048h280v-2048h-280z" />
<glyph unicode="}" d="M121 -131h43q47 0 75.5 7t45 25.5t21.5 48.5t5 75v241q0 61 9.5 105.5t34 76t66.5 51t107 31.5q-66 12 -107.5 32t-66 50.5t-34 75.5t-9.5 107v241q0 45 -5 76t-21.5 49.5t-45 25.5t-75.5 7q-10 0 -20.5 -1t-22.5 -1v285h80q111 0 191.5 -8.5t137.5 -36.5 q74 -37 92.5 -102.5t18.5 -170.5v-258q0 -125 45 -178t160 -53q8 0 16 1t19 1v-283q-10 0 -18.5 1t-16.5 1q-115 0 -160 -53t-45 -178v-258q0 -104 -18.5 -170t-92.5 -103q-55 -29 -133 -36t-182 -7h-94v283z" />
<glyph unicode="~" horiz-adv-x="1705" d="M178 379v299q111 70 208 106.5t200 36.5q70 0 138.5 -15t139.5 -38q76 -25 147.5 -50.5t151.5 -25.5q90 0 179.5 38t187.5 112v-299q-98 -66 -188.5 -99.5t-182.5 -33.5q-74 0 -139.5 17t-126.5 40q-78 27 -158 48.5t-174 21.5q-90 0 -182 -40t-201 -118z" />
<glyph unicode="&#xa1;" horiz-adv-x="782" d="M135 178q0 16 2 44t10 67l140 755h207l139 -755q8 -39 10 -66.5t2 -44.5q0 -209 -254 -209q-256 0 -256 209zM186 1335q0 43 16.5 80t45 64.5t65.5 43t78 15.5t78 -16.5t64.5 -44t44 -64.5t16.5 -78t-15.5 -77.5t-43 -65.5t-64.5 -45.5t-80 -16.5q-86 0 -145.5 59.5 t-59.5 145.5z" />
<glyph unicode="&#xa2;" horiz-adv-x="1366" d="M195 549v342q0 92 15 161.5t52 117t97.5 77t150.5 41.5v170h358v-182q68 -14 139.5 -41t149.5 -80v-301h-385v55q0 66 -16.5 98.5t-65.5 32.5q-47 0 -64.5 -32.5t-17.5 -98.5v-379q0 -68 17.5 -99.5t64.5 -31.5t64.5 33t17.5 98v103h385v-346q-121 -96 -289 -127v-211 h-358v207q-172 16 -243.5 110t-71.5 283z" />
<glyph unicode="&#xa3;" horiz-adv-x="1366" d="M115 0v270q39 18 52 56.5t13 103.5v162h-65v297h65v151q0 86 8.5 161t49.5 147q57 98 169.5 151t272.5 53q152 0 299 -42t283 -126v-411h-435v94q0 78 -16 120t-70 42q-55 0 -75.5 -40t-20.5 -122v-178h299v-297h-299v-264h33q88 0 118.5 34.5t30.5 126.5v21h435v-510 h-1147z" />
<glyph unicode="&#xa4;" horiz-adv-x="1241" d="M53 455l197 200q-66 100 -66 232q0 125 66 227l-197 203l133 135l199 -199q53 35 111.5 51.5t126.5 16.5q135 0 235 -68l199 199l133 -135l-197 -203q33 -53 49.5 -108.5t16.5 -120.5q0 -123 -66 -230l197 -200l-133 -138l-199 201q-102 -70 -235 -69q-131 0 -238 69 l-199 -201zM377 885q0 -49 19.5 -93t53 -78t77.5 -53.5t96 -19.5q49 0 94 19.5t77.5 53.5t52 78t19.5 93t-19.5 93t-53 78t-77.5 53t-93 19t-94.5 -19t-79 -53t-53 -78t-19.5 -93z" />
<glyph unicode="&#xa5;" horiz-adv-x="1366" d="M78 526v158h311l-78 154h-233v157h151l-92 189q-18 37 -59 71v267h534v-217q0 -57 3 -107.5t26 -99.5l61 -137l62 139q33 78 33 192v230h473v-267q-35 -23 -60 -69l-98 -191h143v-157h-221l-80 -154h301v-158h-346v-116q0 -59 14.5 -91t55.5 -49v-270h-614v270 q43 18 56 50t13 90v116h-356z" />
<glyph unicode="&#xa6;" d="M373 -350v758h280v-758h-280zM373 674v758h280v-758h-280z" />
<glyph unicode="&#xa7;" d="M29 645q0 113 40 184.5t126 106.5q-53 43 -82 110.5t-29 153.5q0 162 109.5 257t318.5 95q104 0 215 -33.5t203 -99.5v-252h-326v21q0 59 -28.5 92t-73.5 33q-41 0 -67.5 -28t-26.5 -75q0 -41 22.5 -65.5t63.5 -43t99 -36.5t132 -47q141 -55 208.5 -134t67.5 -204 q1 -221 -165 -291q109 -90 108 -274q0 -154 -109.5 -248t-316.5 -94q-104 0 -216 33.5t-202 99.5v252h326v-23q0 -59 28.5 -91t77.5 -32q41 0 65 25.5t24 73.5q0 43 -23 68.5t-63.5 45t-99 38t-132.5 46.5q-141 55 -207.5 134t-66.5 202zM305 725q0 -41 23.5 -66.5t68.5 -48 t110.5 -45t151.5 -53.5q51 33 52 86q0 43 -23.5 69.5t-69 48t-111 43t-151.5 54.5q-51 -33 -51 -88z" />
<glyph unicode="&#xa8;" d="M178 1432q0 61 44 107t108 46q66 0 109.5 -44t43.5 -109q0 -63 -46 -107.5t-107 -44.5t-106.5 45.5t-45.5 106.5zM541 1432q0 61 44 107t107 46q66 0 109 -44t43 -109q0 -63 -45 -107.5t-107 -44.5q-61 0 -106 45.5t-45 106.5z" />
<glyph unicode="&#xa9;" horiz-adv-x="1705" d="M102 741q0 150 56.5 288t167.5 249q104 104 238 159.5t288 55.5t291 -55.5t246 -163.5q104 -104 160.5 -241.5t56.5 -291.5q0 -156 -55.5 -289t-161.5 -237q-111 -111 -250.5 -168t-286.5 -57q-150 0 -284 56t-244 167q-109 109 -165.5 244t-56.5 284zM256 743 q0 -119 45 -227t131 -194t193.5 -131.5t228.5 -45.5q119 0 227.5 45.5t198.5 133.5q172 167 172 419q0 123 -45 230.5t-129 191.5q-176 176 -424 176q-123 0 -229.5 -43t-190.5 -129q-86 -88 -132 -197.5t-46 -228.5zM440 737q0 102 30 184.5t83 140.5t127 90t160 32 q180 0 280.5 -80t108.5 -221h-242q-4 63 -38 99t-93 36q-72 0 -114 -68.5t-42 -204.5q0 -262 164 -262q121 0 127 144h248q-6 -150 -108.5 -238t-272.5 -88q-197 0 -307.5 115.5t-110.5 320.5z" />
<glyph unicode="&#xaa;" horiz-adv-x="901" d="M53 952q0 68 25.5 111t80 73.5t139.5 55.5t202 55v15q0 92 -60 92q-61 0 -61 -92v-15h-289v187q66 47 165 74.5t218 27.5q182 0 259 -70.5t77 -218.5v-237q0 -41 8 -62.5t31 -32.5v-176h-334l-12 68q-41 -43 -92.5 -61.5t-122.5 -18.5q-111 0 -172.5 57.5t-61.5 167.5z M371 981q0 -57 51 -57q43 0 78 30v123q-66 -25 -97.5 -43t-31.5 -53z" />
<glyph unicode="&#xab;" horiz-adv-x="1052" d="M92 578l174 380h289l-170 -380l170 -379h-289zM518 578l174 380h289l-170 -380l170 -379h-289z" />
<glyph unicode="&#xac;" horiz-adv-x="1705" d="M254 602v266h1198v-501h-272v235h-926z" />
<glyph unicode="&#xad;" horiz-adv-x="782" d="M90 393v369h602v-369h-602z" />
<glyph unicode="&#xae;" horiz-adv-x="1705" d="M102 741q0 150 56.5 288t167.5 249q104 104 238 159.5t288 55.5t291 -55.5t246 -163.5q104 -104 160.5 -241.5t56.5 -291.5q0 -156 -55.5 -289t-161.5 -237q-111 -111 -250.5 -168t-286.5 -57q-150 0 -284 56t-244 167q-109 109 -165.5 244t-56.5 284zM256 743 q0 -119 45 -227t131 -194t193.5 -131.5t228.5 -45.5q119 0 227.5 45.5t198.5 133.5q172 167 172 419q0 123 -45 230.5t-129 191.5q-176 176 -424 176q-123 0 -229.5 -43t-190.5 -129q-86 -88 -132 -197.5t-46 -228.5zM528 352v813h334q178 0 267.5 -61.5t89.5 -177.5 q0 -78 -42 -134.5t-122 -84.5l178 -355h-279l-145 312h-25v-312h-256zM784 813h54q119 0 118 98q0 94 -133 95h-39v-193z" />
<glyph unicode="&#xaf;" d="M205 1348v170h614v-170h-614z" />
<glyph unicode="&#xb0;" horiz-adv-x="673" d="M14 1149q0 68 26 127t70 102t103 69t125 26q68 0 126 -26t101 -69t68.5 -102t25.5 -127q0 -66 -25.5 -124t-68.5 -102t-102.5 -70t-126.5 -26q-68 0 -126 25t-101 69t-69 102t-26 126zM186 1151q0 -63 43 -108.5t109 -45.5q63 0 107 46.5t44 107.5t-45 106.5t-108 45.5 q-61 0 -105.5 -44.5t-44.5 -107.5z" />
<glyph unicode="&#xb1;" horiz-adv-x="1705" d="M254 -41v272h1198v-272h-1198zM254 680v272h459v310h280v-310h459v-272h-459v-309h-280v309h-459z" />
<glyph unicode="&#xb2;" horiz-adv-x="901" d="M74 610v205q0 61 11 105.5t36.5 78t70 60t111.5 57.5q51 23 92 39t67.5 31.5t41 35t14.5 50.5q0 35 -17.5 54.5t-45.5 19.5q-66 0 -66 -86v-62h-295v248q86 49 177 71.5t198 22.5q186 0 274 -69.5t88 -217.5q0 -66 -17 -111.5t-62 -86.5q-31 -29 -98.5 -58.5 t-166.5 -76.5q-53 -27 -81.5 -46.5t-28.5 -58.5v-10h51q53 0 69.5 18.5t18.5 71.5h295v-285h-737z" />
<glyph unicode="&#xb3;" horiz-adv-x="901" d="M82 688v254h299v-57q0 -45 11 -69.5t50 -24.5q66 0 66 96q0 68 -31 86t-96 18h-90v178h90q66 0 94.5 17.5t28.5 79.5q0 80 -68 80q-55 0 -55 -82v-45h-299v219q150 102 377 102q356 0 356 -260q0 -150 -135 -188q145 -43 145 -213q0 -145 -87 -214t-283 -69 q-117 0 -209 22.5t-164 69.5z" />
<glyph unicode="&#xb4;" d="M338 1247l192 371h287l-325 -371h-154z" />
<glyph unicode="&#xb5;" horiz-adv-x="1372" d="M-29 -422l209 1509h422l-84 -614q-2 -14 -3 -27.5t-1 -25.5q0 -133 127 -133q80 0 124 52t60 161l84 587h418l-158 -1087h-368l18 131q-72 -135 -188 -135q-123 0 -176 125l-72 -543h-412z" />
<glyph unicode="&#xb6;" d="M10 1130q0 76 26.5 140.5t78 110.5t123 72t161.5 26h615v-142h-101v-1337h-202v1337h-140v-1337h-202v784q-84 4 -149.5 31t-113 73t-72 107.5t-24.5 134.5z" />
<glyph unicode="&#xb7;" horiz-adv-x="681" d="M137 764q0 41 15.5 78t43 64.5t64.5 44t80 16.5q86 0 145.5 -58.5t59.5 -144.5q0 -43 -16.5 -81t-45 -65.5t-65.5 -43t-78 -15.5t-78 16.5t-64.5 44t-44 65.5t-16.5 79z" />
<glyph unicode="&#xb8;" d="M272 -301q96 -27 165 -36t106 -9q86 0 86 72q0 63 -119 63h-25.5t-29.5 -2v213h114v-84h19q113 0 171 -50t58 -142q0 -98 -64.5 -153.5t-189.5 -55.5q-57 0 -130 11t-161 36v137z" />
<glyph unicode="&#xb9;" horiz-adv-x="901" d="M254 610v162q25 10 32 29.5t7 54.5v428q0 33 -7 53.5t-32 30.5v160h352v-672q0 -35 6 -54.5t31 -29.5v-162h-389z" />
<glyph unicode="&#xba;" horiz-adv-x="880" d="M68 1012v237q0 82 19 136.5t62.5 87t115 47t175.5 14.5t175 -13.5t115 -46t63.5 -88t19.5 -137.5v-237q0 -82 -19.5 -136.5t-62.5 -87t-114.5 -47t-176.5 -14.5q-104 0 -175.5 14.5t-115 47t-62.5 87t-19 136.5zM379 999q0 -47 12 -70.5t49 -23.5q35 0 48.5 23.5 t13.5 70.5v263q0 47 -12.5 69.5t-49.5 22.5t-49 -22.5t-12 -69.5v-263z" />
<glyph unicode="&#xbb;" horiz-adv-x="1052" d="M72 199l170 379l-170 380h286l177 -380l-177 -379h-286zM498 199l170 379l-170 380h288l175 -380l-175 -379h-288z" />
<glyph unicode="&#xbc;" horiz-adv-x="2193" d="M244 672v151q23 10 30 28.5t7 49.5v399q0 31 -7.5 50.5t-29.5 29.5v148h336v-627q0 -31 6 -49t28 -29v-151h-370zM508 0l878 1530h302l-877 -1530h-303zM1391 209v205l333 442h342v-473h66v-174h-66q2 -47 39 -57v-152h-372v152q49 8 49 53v4h-391zM1626 383h162v217z " />
<glyph unicode="&#xbd;" horiz-adv-x="2193" d="M244 672v151q23 10 30 28.5t7 49.5v399q0 31 -7.5 50.5t-29.5 29.5v148h336v-627q0 -31 6 -49t28 -29v-151h-370zM508 0l878 1530h302l-877 -1530h-303zM1405 0v193q0 57 10 98t35 71.5t67 55t105 53.5q51 23 89 38t63.5 29.5t39 32t13.5 45.5q0 35 -16.5 52.5 t-43.5 17.5q-63 0 -63 -80v-57h-281v231q80 47 167 67.5t192 20.5q180 0 262 -66.5t82 -201.5q0 -59 -16.5 -103t-59.5 -81q-29 -27 -93.5 -55.5t-158.5 -71.5q-53 -25 -78.5 -44.5t-25.5 -54.5v-8h49q49 0 65.5 17.5t18.5 66.5h280v-266h-702z" />
<glyph unicode="&#xbe;" horiz-adv-x="2193" d="M78 745v236h287v-53q0 -41 10 -64.5t47 -23.5q63 0 63 90q0 63 -30.5 80.5t-89.5 17.5h-89v166h89q63 0 88.5 15.5t25.5 74.5q0 74 -63 74q-51 0 -51 -76v-43h-287v205q143 96 360 96q340 0 340 -244q0 -141 -129 -174q137 -39 137 -198q0 -137 -82.5 -202t-269.5 -65 q-111 0 -199 20.5t-157 67.5zM508 0l878 1530h302l-877 -1530h-303zM1391 209v205l333 442h342v-473h66v-174h-66q2 -47 39 -57v-152h-372v152q49 8 49 53v4h-391zM1626 383h162v217z" />
<glyph unicode="&#xbf;" horiz-adv-x="1269" d="M84 428q0 92 17.5 159.5t68.5 125.5q43 49 104.5 81.5t128.5 73.5q31 18 51.5 35t32 36t16.5 46t5 66h438v-115q0 -86 -11 -137t-36 -86t-64.5 -60.5t-99.5 -58.5q-80 -45 -127 -83t-47 -101q0 -47 26.5 -77t67.5 -30q43 0 68 35t25 100v88h438v-385 q-117 -86 -255 -122.5t-310 -36.5q-537 0 -537 446zM506 1348q0 43 16.5 79.5t44 64.5t64.5 44t78 16t77.5 -16t65.5 -45t45 -65.5t16 -77.5t-16 -78t-44 -64.5t-64.5 -44t-79.5 -16.5q-86 0 -144.5 58.5t-58.5 144.5z" />
<glyph unicode="&#xc0;" horiz-adv-x="1339" d="M53 0v270q18 6 35.5 38t28.5 85l207 1129h671l234 -1129q23 -106 71 -123v-270h-593v270q51 16 51 82q0 6 -2 15.5t-6 25.5h-232q-2 -14 -4 -25.5t-2 -21.5q0 -68 68 -76v-270h-527zM365 2034h287l192 -371h-154zM553 664h158l-86 540z" />
<glyph unicode="&#xc1;" horiz-adv-x="1339" d="M53 0v270q18 6 35.5 38t28.5 85l207 1129h671l234 -1129q23 -106 71 -123v-270h-593v270q51 16 51 82q0 6 -2 15.5t-6 25.5h-232q-2 -14 -4 -25.5t-2 -21.5q0 -68 68 -76v-270h-527zM496 1663l192 371h287l-325 -371h-154zM553 664h158l-86 540z" />
<glyph unicode="&#xc2;" horiz-adv-x="1339" d="M53 0v270q18 6 35.5 38t28.5 85l207 1129h671l234 -1129q23 -106 71 -123v-270h-593v270q51 16 51 82q0 6 -2 15.5t-6 25.5h-232q-2 -14 -4 -25.5t-2 -21.5q0 -68 68 -76v-270h-527zM348 1663l193 371h256l192 -371h-153l-166 199l-168 -199h-154zM553 664h158l-86 540z " />
<glyph unicode="&#xc3;" horiz-adv-x="1339" d="M53 0v270q18 6 35.5 38t28.5 85l207 1129h671l234 -1129q23 -106 71 -123v-270h-593v270q51 16 51 82q0 6 -2 15.5t-6 25.5h-232q-2 -14 -4 -25.5t-2 -21.5q0 -68 68 -76v-270h-527zM338 1708q29 125 80 185.5t135 60.5q39 0 90 -14l95 -29q25 -8 57 -8q66 0 88 86h119 q-31 -129 -81 -191.5t-138 -62.5q-37 0 -76 12l-92 25q-23 6 -38.5 10t-29.5 4q-63 0 -90 -78h-119zM553 664h158l-86 540z" />
<glyph unicode="&#xc4;" horiz-adv-x="1339" d="M53 0v270q18 6 35.5 38t28.5 85l207 1129h671l234 -1129q23 -106 71 -123v-270h-593v270q51 16 51 82q0 6 -2 15.5t-6 25.5h-232q-2 -14 -4 -25.5t-2 -21.5q0 -68 68 -76v-270h-527zM336 1848q0 61 44 107t108 46q66 0 109.5 -44t43.5 -109q0 -63 -46 -107.5t-107 -44.5 t-106.5 45.5t-45.5 106.5zM553 664h158l-86 540zM699 1848q0 61 44 107t107 46q66 0 109 -44t43 -109q0 -63 -45 -107.5t-107 -44.5q-61 0 -106 45.5t-45 106.5z" />
<glyph unicode="&#xc5;" horiz-adv-x="1339" d="M53 0v270q18 6 35.5 38t28.5 85l207 1129h155q-86 68 -86 180q0 57 21.5 106.5t58.5 86t86 57t105 20.5q55 0 105 -20.5t87 -57t58.5 -86t21.5 -106.5q0 -113 -92 -180h151l234 -1129q23 -106 71 -123v-270h-593v270q51 16 51 82q0 6 -2 15.5t-6 25.5h-232 q-2 -14 -4 -25.5t-2 -21.5q0 -68 68 -76v-270h-527zM551 1702q0 -47 33.5 -81t81.5 -34q47 0 80.5 34t33.5 81t-33.5 81t-80.5 34t-81 -34t-34 -81zM553 664h158l-86 540z" />
<glyph unicode="&#xc6;" horiz-adv-x="1898" d="M41 0v270q27 20 43 50t31 73l358 1129h1339v-504h-413v43q0 80 -26.5 109.5t-106.5 29.5h-41v-270h301v-295h-301v-307q10 -2 20 -2h21q78 0 106.5 40t28.5 134v25.5t-2 29.5h413v-555h-1101v270q55 27 55 119v10h-242q-6 -41 -6 -69q0 -47 45 -60v-270h-522zM584 664 h182v618z" />
<glyph unicode="&#xc7;" horiz-adv-x="1294" d="M98 512v496q0 141 27 244.5t88 170t162.5 98t251.5 31.5q176 0 322.5 -43t260.5 -125v-421h-456v116q0 76 -18.5 113t-71.5 37t-72 -37t-19 -113v-633q0 -76 18.5 -112.5t72.5 -36.5q53 0 71.5 37t18.5 112v191h456v-508q-104 -84 -244.5 -122t-324.5 -38q-154 0 -258 31 t-167.5 96.5t-90.5 168t-27 247.5zM434 -301q96 -27 165 -36t106 -9q86 0 86 72q0 63 -119 63h-25.5t-29.5 -2v213h114v-84h19q113 0 171 -50t58 -142q0 -98 -64.5 -153.5t-189.5 -55.5q-57 0 -130 11t-161 36v137z" />
<glyph unicode="&#xc8;" horiz-adv-x="1312" d="M88 0v270q35 18 46 51t11 89v706q0 55 -11 88t-46 51v267h1139v-504h-436v43q0 80 -27 109.5t-107 29.5h-41v-270h302v-295h-302v-307q10 -2 20.5 -2h20.5q78 0 107 40t29 134v25.5t-2 29.5h436v-555h-1139zM352 2034h287l192 -371h-154z" />
<glyph unicode="&#xc9;" horiz-adv-x="1312" d="M88 0v270q35 18 46 51t11 89v706q0 55 -11 88t-46 51v267h1139v-504h-436v43q0 80 -27 109.5t-107 29.5h-41v-270h302v-295h-302v-307q10 -2 20.5 -2h20.5q78 0 107 40t29 134v25.5t-2 29.5h436v-555h-1139zM483 1663l192 371h287l-325 -371h-154z" />
<glyph unicode="&#xca;" horiz-adv-x="1312" d="M88 0v270q35 18 46 51t11 89v706q0 55 -11 88t-46 51v267h1139v-504h-436v43q0 80 -27 109.5t-107 29.5h-41v-270h302v-295h-302v-307q10 -2 20.5 -2h20.5q78 0 107 40t29 134v25.5t-2 29.5h436v-555h-1139zM335 1663l193 371h256l192 -371h-153l-166 199l-168 -199h-154 z" />
<glyph unicode="&#xcb;" horiz-adv-x="1312" d="M88 0v270q35 18 46 51t11 89v706q0 55 -11 88t-46 51v267h1139v-504h-436v43q0 80 -27 109.5t-107 29.5h-41v-270h302v-295h-302v-307q10 -2 20.5 -2h20.5q78 0 107 40t29 134v25.5t-2 29.5h436v-555h-1139zM323 1848q0 61 44 107t108 46q66 0 109.5 -44t43.5 -109 q0 -63 -46 -107.5t-107 -44.5t-106.5 45.5t-45.5 106.5zM686 1848q0 61 44 107t107 46q66 0 109 -44t43 -109q0 -63 -45 -107.5t-107 -44.5q-61 0 -106 45.5t-45 106.5z" />
<glyph unicode="&#xcc;" horiz-adv-x="778" d="M86 2034h287l192 -371h-154zM94 0v270q35 18 46.5 51t11.5 89v706q0 55 -11.5 88t-46.5 51v267h588v-267q-37 -18 -46 -52t-9 -87v-706q0 -55 9 -88t46 -52v-270h-588z" />
<glyph unicode="&#xcd;" horiz-adv-x="778" d="M94 0v270q35 18 46.5 51t11.5 89v706q0 55 -11.5 88t-46.5 51v267h588v-267q-37 -18 -46 -52t-9 -87v-706q0 -55 9 -88t46 -52v-270h-588zM217 1663l192 371h287l-325 -371h-154z" />
<glyph unicode="&#xce;" horiz-adv-x="778" d="M69 1663l193 371h256l192 -371h-153l-166 199l-168 -199h-154zM94 0v270q35 18 46.5 51t11.5 89v706q0 55 -11.5 88t-46.5 51v267h588v-267q-37 -18 -46 -52t-9 -87v-706q0 -55 9 -88t46 -52v-270h-588z" />
<glyph unicode="&#xcf;" horiz-adv-x="778" d="M57 1848q0 61 44 107t108 46q66 0 109.5 -44t43.5 -109q0 -63 -46 -107.5t-107 -44.5t-106.5 45.5t-45.5 106.5zM94 0v270q35 18 46.5 51t11.5 89v706q0 55 -11.5 88t-46.5 51v267h588v-267q-37 -18 -46 -52t-9 -87v-706q0 -55 9 -88t46 -52v-270h-588zM420 1848 q0 61 44 107t107 46q66 0 109 -44t43 -109q0 -63 -45 -107.5t-107 -44.5q-61 0 -106 45.5t-45 106.5z" />
<glyph unicode="&#xd0;" horiz-adv-x="1404" d="M47 674v241h131v201q0 55 -11 88t-46 51v267h584q174 0 289.5 -23.5t185 -84t98.5 -164t29 -261.5v-457q0 -158 -29 -260t-98.5 -162.5t-185 -85t-289.5 -24.5h-584v270q35 18 46 51t11 89v264h-131zM633 332h88q78 0 102.5 34.5t24.5 122.5v558q0 82 -23.5 112.5 t-103.5 30.5h-88v-275h106v-241h-106v-342z" />
<glyph unicode="&#xd1;" horiz-adv-x="1376" d="M74 0v270q35 18 46 51t11 89v706q0 55 -11 88t-46 51v267h524l289 -770v364q0 59 -10.5 91t-55.5 48v267h496v-267q-37 -18 -46 -52t-9 -87v-1116h-463l-295 725v-315q0 -59 9 -92t48 -48v-270h-487zM356 1708q29 125 80 185.5t135 60.5q39 0 90 -14l95 -29q25 -8 57 -8 q66 0 88 86h119q-31 -129 -81 -191.5t-138 -62.5q-37 0 -76 12l-92 25q-23 6 -38.5 10t-29.5 4q-63 0 -90 -78h-119z" />
<glyph unicode="&#xd2;" horiz-adv-x="1335" d="M98 512v496q0 150 29 254t94.5 168.5t175 93t271.5 28.5t270.5 -28.5t174 -93t94 -169t28.5 -253.5v-496q0 -152 -28.5 -255t-94 -166.5t-174.5 -92.5t-270 -29q-162 0 -271.5 29t-175 92.5t-94.5 166.5t-29 255zM363 2034h287l192 -371h-154zM573 446q0 -76 19.5 -112.5 t75.5 -36.5q53 0 73.5 36t20.5 113v633q0 76 -20.5 113t-73.5 37q-55 0 -75 -37t-20 -113v-633z" />
<glyph unicode="&#xd3;" horiz-adv-x="1335" d="M98 512v496q0 150 29 254t94.5 168.5t175 93t271.5 28.5t270.5 -28.5t174 -93t94 -169t28.5 -253.5v-496q0 -152 -28.5 -255t-94 -166.5t-174.5 -92.5t-270 -29q-162 0 -271.5 29t-175 92.5t-94.5 166.5t-29 255zM494 1663l192 371h287l-325 -371h-154zM573 446 q0 -76 19.5 -112.5t75.5 -36.5q53 0 73.5 36t20.5 113v633q0 76 -20.5 113t-73.5 37q-55 0 -75 -37t-20 -113v-633z" />
<glyph unicode="&#xd4;" horiz-adv-x="1335" d="M98 512v496q0 150 29 254t94.5 168.5t175 93t271.5 28.5t270.5 -28.5t174 -93t94 -169t28.5 -253.5v-496q0 -152 -28.5 -255t-94 -166.5t-174.5 -92.5t-270 -29q-162 0 -271.5 29t-175 92.5t-94.5 166.5t-29 255zM346 1663l193 371h256l192 -371h-153l-166 199l-168 -199 h-154zM573 446q0 -76 19.5 -112.5t75.5 -36.5q53 0 73.5 36t20.5 113v633q0 76 -20.5 113t-73.5 37q-55 0 -75 -37t-20 -113v-633z" />
<glyph unicode="&#xd5;" horiz-adv-x="1335" d="M98 512v496q0 150 29 254t94.5 168.5t175 93t271.5 28.5t270.5 -28.5t174 -93t94 -169t28.5 -253.5v-496q0 -152 -28.5 -255t-94 -166.5t-174.5 -92.5t-270 -29q-162 0 -271.5 29t-175 92.5t-94.5 166.5t-29 255zM336 1708q29 125 80 185.5t135 60.5q39 0 90 -14l95 -29 q25 -8 57 -8q66 0 88 86h119q-31 -129 -81 -191.5t-138 -62.5q-37 0 -76 12l-92 25q-23 6 -38.5 10t-29.5 4q-63 0 -90 -78h-119zM573 446q0 -76 19.5 -112.5t75.5 -36.5q53 0 73.5 36t20.5 113v633q0 76 -20.5 113t-73.5 37q-55 0 -75 -37t-20 -113v-633z" />
<glyph unicode="&#xd6;" horiz-adv-x="1335" d="M98 512v496q0 150 29 254t94.5 168.5t175 93t271.5 28.5t270.5 -28.5t174 -93t94 -169t28.5 -253.5v-496q0 -152 -28.5 -255t-94 -166.5t-174.5 -92.5t-270 -29q-162 0 -271.5 29t-175 92.5t-94.5 166.5t-29 255zM334 1848q0 61 44 107t108 46q66 0 109.5 -44t43.5 -109 q0 -63 -46 -107.5t-107 -44.5t-106.5 45.5t-45.5 106.5zM573 446q0 -76 19.5 -112.5t75.5 -36.5q53 0 73.5 36t20.5 113v633q0 76 -20.5 113t-73.5 37q-55 0 -75 -37t-20 -113v-633zM697 1848q0 61 44 107t107 46q66 0 109 -44t43 -109q0 -63 -45 -107.5t-107 -44.5 q-61 0 -106 45.5t-45 106.5z" />
<glyph unicode="&#xd7;" horiz-adv-x="1705" d="M254 184l426 426l-426 426l195 195l425 -426l426 426l195 -195l-426 -426l426 -426l-195 -194l-426 426l-425 -426z" />
<glyph unicode="&#xd8;" horiz-adv-x="1335" d="M41 43l102 166q-27 41 -36 114.5t-9 188.5v496q0 150 29 254t94.5 168.5t175 93t271.5 28.5q76 0 143.5 -5t130.5 -23l68 112l305 -184l-111 -178q23 -49 27 -114.5t4 -151.5v-496q0 -152 -28.5 -255t-94 -166.5t-174.5 -92.5t-270 -29q-141 0 -234 27l-82 -133zM573 446 q0 -76 19.5 -112.5t75.5 -36.5q53 0 73.5 36t20.5 113v633q0 76 -20.5 113t-73.5 37q-55 0 -75 -37t-20 -113v-633z" />
<glyph unicode="&#xd9;" horiz-adv-x="1345" d="M66 1255v267h583v-267q-35 -16 -44 -47.5t-9 -91.5v-670q0 -76 19.5 -112.5t74.5 -36.5q53 0 73.5 36t20.5 113v670q0 59 -9 91t-44 48v267h543v-267q-37 -18 -47 -52t-10 -87v-536q0 -123 -7.5 -218.5t-44.5 -164.5q-63 -117 -186 -172.5t-313 -55.5q-326 0 -461 187 q-49 72 -60.5 150.5t-11.5 172.5v80v557q0 57 -13.5 89t-53.5 50zM369 2034h287l192 -371h-154z" />
<glyph unicode="&#xda;" horiz-adv-x="1345" d="M66 1255v267h583v-267q-35 -16 -44 -47.5t-9 -91.5v-670q0 -76 19.5 -112.5t74.5 -36.5q53 0 73.5 36t20.5 113v670q0 59 -9 91t-44 48v267h543v-267q-37 -18 -47 -52t-10 -87v-536q0 -123 -7.5 -218.5t-44.5 -164.5q-63 -117 -186 -172.5t-313 -55.5q-326 0 -461 187 q-49 72 -60.5 150.5t-11.5 172.5v80v557q0 57 -13.5 89t-53.5 50zM500 1663l192 371h287l-325 -371h-154z" />
<glyph unicode="&#xdb;" horiz-adv-x="1345" d="M66 1255v267h583v-267q-35 -16 -44 -47.5t-9 -91.5v-670q0 -76 19.5 -112.5t74.5 -36.5q53 0 73.5 36t20.5 113v670q0 59 -9 91t-44 48v267h543v-267q-37 -18 -47 -52t-10 -87v-536q0 -123 -7.5 -218.5t-44.5 -164.5q-63 -117 -186 -172.5t-313 -55.5q-326 0 -461 187 q-49 72 -60.5 150.5t-11.5 172.5v80v557q0 57 -13.5 89t-53.5 50zM352 1663l193 371h256l192 -371h-153l-166 199l-168 -199h-154z" />
<glyph unicode="&#xdc;" horiz-adv-x="1345" d="M66 1255v267h583v-267q-35 -16 -44 -47.5t-9 -91.5v-670q0 -76 19.5 -112.5t74.5 -36.5q53 0 73.5 36t20.5 113v670q0 59 -9 91t-44 48v267h543v-267q-37 -18 -47 -52t-10 -87v-536q0 -123 -7.5 -218.5t-44.5 -164.5q-63 -117 -186 -172.5t-313 -55.5q-326 0 -461 187 q-49 72 -60.5 150.5t-11.5 172.5v80v557q0 57 -13.5 89t-53.5 50zM340 1848q0 61 44 107t108 46q66 0 109.5 -44t43.5 -109q0 -63 -46 -107.5t-107 -44.5t-106.5 45.5t-45.5 106.5zM703 1848q0 61 44 107t107 46q66 0 109 -44t43 -109q0 -63 -45 -107.5t-107 -44.5 q-61 0 -106 45.5t-45 106.5z" />
<glyph unicode="&#xdd;" horiz-adv-x="1204" d="M6 1255v267h535v-176q0 -57 3 -108.5t25 -100.5l62 -138l61 142q33 78 33 190v191h473v-267q-35 -23 -59 -69l-301 -588v-188q0 -57 12 -89t57 -51v-270h-614v270q43 18 56 50t13 90v188l-296 586q-16 35 -60 71zM428 1663l192 371h287l-325 -371h-154z" />
<glyph unicode="&#xde;" horiz-adv-x="1280" d="M88 0v270q35 18 45 51t10 89v706q0 55 -10 88t-45 51v267h580v-199q-57 -20 -58 -86v-8h121q145 0 241.5 -24.5t153 -80t79 -143.5t22.5 -215q0 -115 -31 -192.5t-91.5 -124t-152.5 -65.5t-215 -19h-127v-27q0 -61 13.5 -93t66.5 -46v-199h-602zM610 639h25 q86 0 118.5 27.5t32.5 105.5v41q0 72 -25.5 106.5t-96.5 34.5h-54v-315z" />
<glyph unicode="&#xdf;" horiz-adv-x="1232" d="M94 0v252q29 10 38 40t9 85v733q0 111 21.5 191.5t75 133t146.5 77t237 24.5q141 0 238 -20.5t157.5 -65.5t87 -120t26.5 -181q0 -125 -36.5 -195.5t-128.5 -99.5q100 -29 135 -94.5t35 -184.5v-221q0 -94 -17.5 -161.5t-57.5 -110.5t-106.5 -62.5t-167.5 -19.5h-165v252 q66 6 84 39t18 112v193q0 109 -96 109h-6v253q59 4 80.5 30t21.5 91v86q0 117 -86 117q-45 0 -61.5 -27.5t-16.5 -85.5v-1169h-465z" />
<glyph unicode="&#xe0;" horiz-adv-x="1202" d="M72 303q0 96 33.5 157.5t106.5 105.5t184.5 80t269.5 81v21q0 131 -80 131t-80 -131v-21h-385v264q88 68 219 108t291 40q242 0 344 -100.5t102 -311.5v-342q0 -55 11.5 -87t41.5 -46v-252h-446l-14 96q-53 -61 -122 -87.5t-165 -26.5q-147 0 -229 82.5t-82 238.5z M297 1618h287l192 -371h-154zM494 344q0 -80 69 -80q55 0 103 43v176q-88 -35 -130 -61.5t-42 -77.5z" />
<glyph unicode="&#xe1;" horiz-adv-x="1202" d="M72 303q0 96 33.5 157.5t106.5 105.5t184.5 80t269.5 81v21q0 131 -80 131t-80 -131v-21h-385v264q88 68 219 108t291 40q242 0 344 -100.5t102 -311.5v-342q0 -55 11.5 -87t41.5 -46v-252h-446l-14 96q-53 -61 -122 -87.5t-165 -26.5q-147 0 -229 82.5t-82 238.5z M428 1247l192 371h287l-325 -371h-154zM494 344q0 -80 69 -80q55 0 103 43v176q-88 -35 -130 -61.5t-42 -77.5z" />
<glyph unicode="&#xe2;" horiz-adv-x="1202" d="M72 303q0 96 33.5 157.5t106.5 105.5t184.5 80t269.5 81v21q0 131 -80 131t-80 -131v-21h-385v264q88 68 219 108t291 40q242 0 344 -100.5t102 -311.5v-342q0 -55 11.5 -87t41.5 -46v-252h-446l-14 96q-53 -61 -122 -87.5t-165 -26.5q-147 0 -229 82.5t-82 238.5z M280 1247l193 371h256l192 -371h-153l-166 199l-168 -199h-154zM494 344q0 -80 69 -80q55 0 103 43v176q-88 -35 -130 -61.5t-42 -77.5z" />
<glyph unicode="&#xe3;" horiz-adv-x="1202" d="M72 303q0 96 33.5 157.5t106.5 105.5t184.5 80t269.5 81v21q0 131 -80 131t-80 -131v-21h-385v264q88 68 219 108t291 40q242 0 344 -100.5t102 -311.5v-342q0 -55 11.5 -87t41.5 -46v-252h-446l-14 96q-53 -61 -122 -87.5t-165 -26.5q-147 0 -229 82.5t-82 238.5z M270 1292q29 125 80 185.5t135 60.5q39 0 90 -14l95 -29q25 -8 57 -8q66 0 88 86h119q-31 -129 -81 -191.5t-138 -62.5q-37 0 -76 12l-92 25q-23 6 -38.5 10t-29.5 4q-63 0 -90 -78h-119zM494 344q0 -80 69 -80q55 0 103 43v176q-88 -35 -130 -61.5t-42 -77.5z" />
<glyph unicode="&#xe4;" horiz-adv-x="1202" d="M72 303q0 96 33.5 157.5t106.5 105.5t184.5 80t269.5 81v21q0 131 -80 131t-80 -131v-21h-385v264q88 68 219 108t291 40q242 0 344 -100.5t102 -311.5v-342q0 -55 11.5 -87t41.5 -46v-252h-446l-14 96q-53 -61 -122 -87.5t-165 -26.5q-147 0 -229 82.5t-82 238.5z M268 1432q0 61 44 107t108 46q66 0 109.5 -44t43.5 -109q0 -63 -46 -107.5t-107 -44.5t-106.5 45.5t-45.5 106.5zM494 344q0 -80 69 -80q55 0 103 43v176q-88 -35 -130 -61.5t-42 -77.5zM631 1432q0 61 44 107t107 46q66 0 109 -44t43 -109q0 -63 -45 -107.5t-107 -44.5 q-61 0 -106 45.5t-45 106.5z" />
<glyph unicode="&#xe5;" horiz-adv-x="1202" d="M72 303q0 96 33.5 157.5t106.5 105.5t184.5 80t269.5 81v21q0 131 -80 131t-80 -131v-21h-385v264q88 68 219 108t291 40q242 0 344 -100.5t102 -311.5v-342q0 -55 11.5 -87t41.5 -46v-252h-446l-14 96q-53 -61 -122 -87.5t-165 -26.5q-147 0 -229 82.5t-82 238.5z M328 1477q0 57 21.5 106t58 86t87 57.5t105.5 20.5q57 0 106.5 -21.5t86 -58.5t57 -86t20.5 -104q0 -57 -20.5 -106.5t-57 -86.5t-86 -58.5t-106.5 -21.5t-106.5 20.5t-86 57.5t-58 87t-21.5 108zM485 1475q0 -47 34 -80t81 -33t81 32.5t34 80.5q0 47 -34 80.5t-81 33.5 t-81 -33.5t-34 -80.5zM494 344q0 -80 69 -80q55 0 103 43v176q-88 -35 -130 -61.5t-42 -77.5z" />
<glyph unicode="&#xe6;" horiz-adv-x="1736" d="M72 303q0 96 33.5 157.5t106.5 105.5t184.5 80t269.5 81v21q0 131 -80 131t-80 -131v-21h-385v264q90 68 209 105t260 37q84 0 150.5 -15.5t125.5 -54.5q115 74 314 74q131 0 221 -25t145.5 -78t80 -136t24.5 -198v-225h-582v-104q0 -68 17.5 -100.5t64.5 -32.5 t65.5 33.5t18.5 99.5v30h416v-276q-82 -68 -209 -105.5t-291 -37.5q-117 0 -211 32.5t-158 96.5q-86 -63 -186 -96t-213 -33q-147 0 -229 82.5t-82 238.5zM498 346q0 -72 69 -72q53 0 99 39v160q-86 -33 -127 -56.5t-41 -70.5zM1069 707h166v41q0 66 -17.5 98.5t-66.5 32.5 q-47 0 -64.5 -33t-17.5 -98v-41z" />
<glyph unicode="&#xe7;" horiz-adv-x="1128" d="M90 389v340q0 109 23.5 185.5t77 126t141.5 73t215 23.5q303 0 506 -144v-299h-385v54q0 66 -16.5 98.5t-65.5 32.5q-47 0 -64.5 -33t-17.5 -98v-377q0 -68 17.5 -100.5t64.5 -32.5t64.5 33.5t17.5 99.5v100h385v-346q-174 -143 -494 -143q-133 0 -222 22.5t-144.5 70.5 t-79 126t-23.5 188zM342 -301q96 -27 165 -36t106 -9q86 0 86 72q0 63 -119 63h-25.5t-29.5 -2v213h114v-84h19q113 0 171 -50t58 -142q0 -98 -64.5 -153.5t-189.5 -55.5q-57 0 -130 11t-161 36v137z" />
<glyph unicode="&#xe8;" horiz-adv-x="1171" d="M90 389v340q0 117 25.5 194.5t84 126t154 68t232.5 19.5q139 0 234 -22.5t153.5 -75t84 -135.5t25.5 -204v-225h-579v-104q0 -68 17.5 -100.5t64.5 -32.5t64.5 33.5t17.5 99.5v30h415v-276q-82 -70 -213 -106.5t-309 -36.5q-131 0 -221 21.5t-145.5 70.5t-80 127 t-24.5 188zM281 1618h287l192 -371h-154zM504 707h164v41q0 66 -16.5 98.5t-65.5 32.5q-47 0 -64.5 -33t-17.5 -98v-41z" />
<glyph unicode="&#xe9;" horiz-adv-x="1171" d="M90 389v340q0 117 25.5 194.5t84 126t154 68t232.5 19.5q139 0 234 -22.5t153.5 -75t84 -135.5t25.5 -204v-225h-579v-104q0 -68 17.5 -100.5t64.5 -32.5t64.5 33.5t17.5 99.5v30h415v-276q-82 -70 -213 -106.5t-309 -36.5q-131 0 -221 21.5t-145.5 70.5t-80 127 t-24.5 188zM412 1247l192 371h287l-325 -371h-154zM504 707h164v41q0 66 -16.5 98.5t-65.5 32.5q-47 0 -64.5 -33t-17.5 -98v-41z" />
<glyph unicode="&#xea;" horiz-adv-x="1171" d="M90 389v340q0 117 25.5 194.5t84 126t154 68t232.5 19.5q139 0 234 -22.5t153.5 -75t84 -135.5t25.5 -204v-225h-579v-104q0 -68 17.5 -100.5t64.5 -32.5t64.5 33.5t17.5 99.5v30h415v-276q-82 -70 -213 -106.5t-309 -36.5q-131 0 -221 21.5t-145.5 70.5t-80 127 t-24.5 188zM264 1247l193 371h256l192 -371h-153l-166 199l-168 -199h-154zM504 707h164v41q0 66 -16.5 98.5t-65.5 32.5q-47 0 -64.5 -33t-17.5 -98v-41z" />
<glyph unicode="&#xeb;" horiz-adv-x="1171" d="M90 389v340q0 117 25.5 194.5t84 126t154 68t232.5 19.5q139 0 234 -22.5t153.5 -75t84 -135.5t25.5 -204v-225h-579v-104q0 -68 17.5 -100.5t64.5 -32.5t64.5 33.5t17.5 99.5v30h415v-276q-82 -70 -213 -106.5t-309 -36.5q-131 0 -221 21.5t-145.5 70.5t-80 127 t-24.5 188zM252 1432q0 61 44 107t108 46q66 0 109.5 -44t43.5 -109q0 -63 -46 -107.5t-107 -44.5t-106.5 45.5t-45.5 106.5zM504 707h164v41q0 66 -16.5 98.5t-65.5 32.5q-47 0 -64.5 -33t-17.5 -98v-41zM615 1432q0 61 44 107t107 46q66 0 109 -44t43 -109 q0 -63 -45 -107.5t-107 -44.5q-61 0 -106 45.5t-45 106.5z" />
<glyph unicode="&#xec;" horiz-adv-x="692" d="M31 1618h287l192 -371h-154zM88 0v252q55 14 55 141v355q0 47 -10 74.5t-45 43.5v252h473v-719q0 -61 10.5 -96t38.5 -51v-252h-522z" />
<glyph unicode="&#xed;" horiz-adv-x="692" d="M88 0v252q55 14 55 141v355q0 47 -10 74.5t-45 43.5v252h473v-719q0 -61 10.5 -96t38.5 -51v-252h-522zM162 1247l192 371h287l-325 -371h-154z" />
<glyph unicode="&#xee;" horiz-adv-x="692" d="M14 1247l193 371h256l192 -371h-153l-166 199l-168 -199h-154zM88 0v252q55 14 55 141v355q0 47 -10 74.5t-45 43.5v252h473v-719q0 -61 10.5 -96t38.5 -51v-252h-522z" />
<glyph unicode="&#xef;" horiz-adv-x="692" d="M2 1432q0 61 44 107t108 46q66 0 109.5 -44t43.5 -109q0 -63 -46 -107.5t-107 -44.5t-106.5 45.5t-45.5 106.5zM88 0v252q55 14 55 141v355q0 47 -10 74.5t-45 43.5v252h473v-719q0 -61 10.5 -96t38.5 -51v-252h-522zM365 1432q0 61 44 107t107 46q66 0 109 -44t43 -109 q0 -63 -45 -107.5t-107 -44.5q-61 0 -106 45.5t-45 106.5z" />
<glyph unicode="&#xf0;" horiz-adv-x="1173" d="M90 369v323q0 104 23.5 178t78 120t142.5 67.5t217 21.5q25 0 46 -1t44 -3q-29 47 -59.5 90t-65.5 82l-309 -121l-51 134l270 106q-33 41 -72 87t-86 99h297q49 -43 99 -92l245 92l56 -129l-201 -80q162 -164 240.5 -318.5t78.5 -332.5v-323q0 -111 -25.5 -185.5 t-84 -120t-153.5 -63.5t-234 -18t-233.5 19t-153 63.5t-84 119t-25.5 185.5zM504 350q0 -66 17.5 -95.5t64.5 -29.5t64.5 30t17.5 95v359q0 63 -16.5 94t-65.5 31q-47 0 -64.5 -31t-17.5 -94v-359z" />
<glyph unicode="&#xf1;" horiz-adv-x="1255" d="M84 0v252q55 14 55 141v355q0 47 -10 74.5t-45 43.5v252h455v-76q129 88 286 88q174 0 241 -90t67 -274v-369q0 -63 7 -97t42 -48v-252h-445q-16 78 -19 187.5t-3 250.5v244q0 74 -17.5 111.5t-76.5 37.5q-27 0 -66 -14v-418q0 -61 11.5 -96t39.5 -51v-252h-522z M297 1292q29 125 80 185.5t135 60.5q39 0 90 -14l95 -29q25 -8 57 -8q66 0 88 86h119q-31 -129 -81 -191.5t-138 -62.5q-37 0 -76 12l-92 25q-23 6 -38.5 10t-29.5 4q-63 0 -90 -78h-119z" />
<glyph unicode="&#xf2;" horiz-adv-x="1173" d="M90 389v340q0 117 25.5 194.5t84 125t152.5 68t234 20.5q139 0 234 -19.5t153.5 -68t84 -126t25.5 -194.5v-340q0 -117 -25.5 -194.5t-84 -124.5t-153.5 -67.5t-234 -20.5t-233.5 20.5t-153 67.5t-84 124.5t-25.5 194.5zM283 1618h287l192 -371h-154zM504 371 q0 -68 17.5 -100.5t64.5 -32.5t64.5 33.5t17.5 99.5v377q0 66 -16.5 98.5t-65.5 32.5q-47 0 -64.5 -33t-17.5 -98v-377z" />
<glyph unicode="&#xf3;" horiz-adv-x="1173" d="M90 389v340q0 117 25.5 194.5t84 125t152.5 68t234 20.5q139 0 234 -19.5t153.5 -68t84 -126t25.5 -194.5v-340q0 -117 -25.5 -194.5t-84 -124.5t-153.5 -67.5t-234 -20.5t-233.5 20.5t-153 67.5t-84 124.5t-25.5 194.5zM414 1247l192 371h287l-325 -371h-154zM504 371 q0 -68 17.5 -100.5t64.5 -32.5t64.5 33.5t17.5 99.5v377q0 66 -16.5 98.5t-65.5 32.5q-47 0 -64.5 -33t-17.5 -98v-377z" />
<glyph unicode="&#xf4;" horiz-adv-x="1173" d="M90 389v340q0 117 25.5 194.5t84 125t152.5 68t234 20.5q139 0 234 -19.5t153.5 -68t84 -126t25.5 -194.5v-340q0 -117 -25.5 -194.5t-84 -124.5t-153.5 -67.5t-234 -20.5t-233.5 20.5t-153 67.5t-84 124.5t-25.5 194.5zM266 1247l193 371h256l192 -371h-153l-166 199 l-168 -199h-154zM504 371q0 -68 17.5 -100.5t64.5 -32.5t64.5 33.5t17.5 99.5v377q0 66 -16.5 98.5t-65.5 32.5q-47 0 -64.5 -33t-17.5 -98v-377z" />
<glyph unicode="&#xf5;" horiz-adv-x="1173" d="M90 389v340q0 117 25.5 194.5t84 125t152.5 68t234 20.5q139 0 234 -19.5t153.5 -68t84 -126t25.5 -194.5v-340q0 -117 -25.5 -194.5t-84 -124.5t-153.5 -67.5t-234 -20.5t-233.5 20.5t-153 67.5t-84 124.5t-25.5 194.5zM256 1292q29 125 80 185.5t135 60.5q39 0 90 -14 l95 -29q25 -8 57 -8q66 0 88 86h119q-31 -129 -81 -191.5t-138 -62.5q-37 0 -76 12l-92 25q-23 6 -38.5 10t-29.5 4q-63 0 -90 -78h-119zM504 371q0 -68 17.5 -100.5t64.5 -32.5t64.5 33.5t17.5 99.5v377q0 66 -16.5 98.5t-65.5 32.5q-47 0 -64.5 -33t-17.5 -98v-377z" />
<glyph unicode="&#xf6;" horiz-adv-x="1173" d="M90 389v340q0 117 25.5 194.5t84 125t152.5 68t234 20.5q139 0 234 -19.5t153.5 -68t84 -126t25.5 -194.5v-340q0 -117 -25.5 -194.5t-84 -124.5t-153.5 -67.5t-234 -20.5t-233.5 20.5t-153 67.5t-84 124.5t-25.5 194.5zM254 1432q0 61 44 107t108 46q66 0 109.5 -44 t43.5 -109q0 -63 -46 -107.5t-107 -44.5t-106.5 45.5t-45.5 106.5zM504 371q0 -68 17.5 -100.5t64.5 -32.5t64.5 33.5t17.5 99.5v377q0 66 -16.5 98.5t-65.5 32.5q-47 0 -64.5 -33t-17.5 -98v-377zM617 1432q0 61 44 107t107 46q66 0 109 -44t43 -109q0 -63 -45 -107.5 t-107 -44.5q-61 0 -106 45.5t-45 106.5z" />
<glyph unicode="&#xf7;" horiz-adv-x="1705" d="M254 475v273h1198v-273h-1198zM670 188q0 39 14 73t40 58.5t59.5 38t70.5 13.5t69.5 -14.5t58.5 -39t40 -58.5t14 -71t-14 -69.5t-39 -57t-58.5 -40t-72.5 -15.5q-78 0 -130 53.5t-52 128.5zM670 1032q0 39 14 73t40 58.5t59.5 39t70.5 14.5t69.5 -14.5t58.5 -40 t40 -59.5t14 -71t-14 -69.5t-39 -57t-58.5 -40t-72.5 -15.5q-78 0 -130 53t-52 129z" />
<glyph unicode="&#xf8;" horiz-adv-x="1173" d="M49 51l78 115q-37 43 -37 223v340q0 117 25.5 194.5t84 125t152.5 68t234 20.5q98 0 156.5 -8.5t78.5 -12.5l70 94l233 -163l-73 -103q33 -59 32 -215v-340q0 -117 -25.5 -194.5t-84 -124.5t-153.5 -67.5t-234 -20.5q-63 0 -118.5 4t-105.5 16l-77 -111zM504 371 q0 -68 17.5 -100.5t64.5 -32.5t64.5 33.5t17.5 99.5v377q0 66 -16.5 98.5t-65.5 32.5q-47 0 -64.5 -33t-17.5 -98v-377z" />
<glyph unicode="&#xf9;" horiz-adv-x="1255" d="M76 866v252h444q16 -84 19.5 -192.5t3.5 -245.5v-244q0 -74 17.5 -110.5t76.5 -36.5q14 0 30.5 2t34.5 10v418q0 63 -10 97t-39 50v252h467v-747q0 -47 9.5 -76t44.5 -43v-252h-455v76q-127 -86 -285 -86q-88 0 -147.5 22.5t-95 67.5t-51 113.5t-15.5 160.5v367 q0 63 -7 97t-42 48zM309 1618h287l192 -371h-154z" />
<glyph unicode="&#xfa;" horiz-adv-x="1255" d="M76 866v252h444q16 -84 19.5 -192.5t3.5 -245.5v-244q0 -74 17.5 -110.5t76.5 -36.5q14 0 30.5 2t34.5 10v418q0 63 -10 97t-39 50v252h467v-747q0 -47 9.5 -76t44.5 -43v-252h-455v76q-127 -86 -285 -86q-88 0 -147.5 22.5t-95 67.5t-51 113.5t-15.5 160.5v367 q0 63 -7 97t-42 48zM440 1247l192 371h287l-325 -371h-154z" />
<glyph unicode="&#xfb;" horiz-adv-x="1255" d="M76 866v252h444q16 -84 19.5 -192.5t3.5 -245.5v-244q0 -74 17.5 -110.5t76.5 -36.5q14 0 30.5 2t34.5 10v418q0 63 -10 97t-39 50v252h467v-747q0 -47 9.5 -76t44.5 -43v-252h-455v76q-127 -86 -285 -86q-88 0 -147.5 22.5t-95 67.5t-51 113.5t-15.5 160.5v367 q0 63 -7 97t-42 48zM292 1247l193 371h256l192 -371h-153l-166 199l-168 -199h-154z" />
<glyph unicode="&#xfc;" horiz-adv-x="1255" d="M76 866v252h444q16 -84 19.5 -192.5t3.5 -245.5v-244q0 -74 17.5 -110.5t76.5 -36.5q14 0 30.5 2t34.5 10v418q0 63 -10 97t-39 50v252h467v-747q0 -47 9.5 -76t44.5 -43v-252h-455v76q-127 -86 -285 -86q-88 0 -147.5 22.5t-95 67.5t-51 113.5t-15.5 160.5v367 q0 63 -7 97t-42 48zM280 1432q0 61 44 107t108 46q66 0 109.5 -44t43.5 -109q0 -63 -46 -107.5t-107 -44.5t-106.5 45.5t-45.5 106.5zM643 1432q0 61 44 107t107 46q66 0 109 -44t43 -109q0 -63 -45 -107.5t-107 -44.5q-61 0 -106 45.5t-45 106.5z" />
<glyph unicode="&#xfd;" horiz-adv-x="1138" d="M37 868v250h518v-250q-37 -16 -37 -55q0 -10 6 -41l88 -391l76 381q4 16 4 28.5v20.5q0 43 -41 57v250h451v-250q-39 -25 -64 -110l-239 -819q-53 -184 -142.5 -270.5t-244.5 -86.5q-94 0 -193 29v242q127 2 164 110l-285 811q-10 27 -25.5 52.5t-35.5 41.5zM395 1247 l192 371h287l-325 -371h-154z" />
<glyph unicode="&#xfe;" horiz-adv-x="1208" d="M70 -147q55 14 55 143v1155q0 47 -10.5 74.5t-44.5 44.5v252h471v-469q57 37 125.5 57t144.5 20q90 0 149.5 -23.5t94.5 -70.5t49 -116.5t14 -163.5v-348q0 -102 -12 -181.5t-46 -131.5t-95.5 -78.5t-157.5 -26.5q-59 0 -129 15t-137 48v-53q0 -66 11 -101.5t44 -45.5 v-250h-526v250zM541 303q37 -18 71 -18q63 0 75.5 40t12.5 113v244q0 74 -17 110.5t-77 36.5q-33 0 -65 -12v-514z" />
<glyph unicode="&#xff;" horiz-adv-x="1138" d="M37 868v250h518v-250q-37 -16 -37 -55q0 -10 6 -41l88 -391l76 381q4 16 4 28.5v20.5q0 43 -41 57v250h451v-250q-39 -25 -64 -110l-239 -819q-53 -184 -142.5 -270.5t-244.5 -86.5q-94 0 -193 29v242q127 2 164 110l-285 811q-10 27 -25.5 52.5t-35.5 41.5zM235 1432 q0 61 44 107t108 46q66 0 109.5 -44t43.5 -109q0 -63 -46 -107.5t-107 -44.5t-106.5 45.5t-45.5 106.5zM598 1432q0 61 44 107t107 46q66 0 109 -44t43 -109q0 -63 -45 -107.5t-107 -44.5q-61 0 -106 45.5t-45 106.5z" />
<glyph unicode="&#x152;" horiz-adv-x="1896" d="M98 512v496q0 150 29 254t94.5 168.5t175 93t271.5 28.5q78 0 145.5 -7t126.5 -23h870v-504h-413v43q0 80 -27 109.5t-106 29.5h-41v-270h301v-295h-301v-307q10 -2 20 -2h21q78 0 106.5 40t28.5 134v25.5t-2 29.5h413v-555h-866q-127 -31 -276 -31q-162 0 -271.5 29 t-175 92.5t-94.5 166.5t-29 255zM573 446q0 -76 19.5 -112.5t75.5 -36.5q53 0 73.5 36t20.5 113v633q0 76 -20.5 113t-73.5 37q-55 0 -75 -37t-20 -113v-633z" />
<glyph unicode="&#x153;" horiz-adv-x="1748" d="M90 389v340q0 111 23.5 187.5t78 126t143.5 72t218 22.5q213 0 326 -66q59 31 138 48.5t177 17.5q129 0 219 -25t145.5 -78t80 -136t24.5 -198v-225h-582v-104q0 -68 17.5 -100.5t64.5 -32.5t65.5 33.5t18.5 99.5v30h416v-276q-82 -68 -209 -105.5t-291 -37.5 q-86 0 -160.5 17t-128.5 46q-152 -63 -329 -63q-127 0 -214 23.5t-140.5 72.5t-77 126t-23.5 185zM504 371q0 -68 17.5 -100.5t64.5 -32.5t64.5 33.5t17.5 99.5v377q0 66 -16.5 98.5t-65.5 32.5q-47 0 -64.5 -33t-17.5 -98v-377zM1081 707h166v41q0 66 -17.5 98.5 t-66.5 32.5q-47 0 -64.5 -33t-17.5 -98v-41z" />
<glyph unicode="&#x178;" horiz-adv-x="1204" d="M6 1255v267h535v-176q0 -57 3 -108.5t25 -100.5l62 -138l61 142q33 78 33 190v191h473v-267q-35 -23 -59 -69l-301 -588v-188q0 -57 12 -89t57 -51v-270h-614v270q43 18 56 50t13 90v188l-296 586q-16 35 -60 71zM268 1848q0 61 44 107t108 46q66 0 109.5 -44t43.5 -109 q0 -63 -46 -107.5t-107 -44.5t-106.5 45.5t-45.5 106.5zM631 1848q0 61 44 107t107 46q66 0 109 -44t43 -109q0 -63 -45 -107.5t-107 -44.5q-61 0 -106 45.5t-45 106.5z" />
<glyph unicode="&#x2c6;" d="M190 1247l193 371h256l192 -371h-153l-166 199l-168 -199h-154z" />
<glyph unicode="&#x2dc;" d="M180 1292q29 125 80 185.5t135 60.5q39 0 90 -14l95 -29q25 -8 57 -8q66 0 88 86h119q-31 -129 -81 -191.5t-138 -62.5q-37 0 -76 12l-92 25q-23 6 -38.5 10t-29.5 4q-63 0 -90 -78h-119z" />
<glyph unicode="&#x2000;" horiz-adv-x="1017" />
<glyph unicode="&#x2001;" horiz-adv-x="2034" />
<glyph unicode="&#x2002;" horiz-adv-x="1017" />
<glyph unicode="&#x2003;" horiz-adv-x="2034" />
<glyph unicode="&#x2004;" horiz-adv-x="678" />
<glyph unicode="&#x2005;" horiz-adv-x="508" />
<glyph unicode="&#x2006;" horiz-adv-x="339" />
<glyph unicode="&#x2007;" horiz-adv-x="339" />
<glyph unicode="&#x2008;" horiz-adv-x="254" />
<glyph unicode="&#x2009;" horiz-adv-x="406" />
<glyph unicode="&#x200a;" horiz-adv-x="113" />
<glyph unicode="&#x2010;" horiz-adv-x="782" d="M90 393v369h602v-369h-602z" />
<glyph unicode="&#x2011;" horiz-adv-x="782" d="M90 393v369h602v-369h-602z" />
<glyph unicode="&#x2012;" horiz-adv-x="782" d="M90 393v369h602v-369h-602z" />
<glyph unicode="&#x2013;" d="M0 442v271h1024v-271h-1024z" />
<glyph unicode="&#x2014;" horiz-adv-x="2048" d="M0 442v271h2048v-271h-2048z" />
<glyph unicode="&#x2018;" horiz-adv-x="569" d="M115 1153q0 190 250 399l57 -57q-47 -53 -78 -105.5t-45 -103.5h18q72 0 116 -42t44 -107q0 -37 -14 -70t-39 -57.5t-57.5 -39t-71.5 -14.5q-78 0 -129 52.5t-51 144.5z" />
<glyph unicode="&#x2019;" horiz-adv-x="569" d="M102 1372q0 37 14.5 70t39 57.5t57.5 38.5t72 14q78 0 129 -52t51 -144q0 -190 -248 -400l-57 56q88 102 121 211h-19q-72 0 -116 42t-44 107z" />
<glyph unicode="&#x201a;" horiz-adv-x="569" d="M102 174q0 37 14.5 69.5t39 57.5t57.5 39t72 14q78 0 129 -52t51 -144q0 -190 -248 -400l-57 56q90 104 121 211h-19q-72 0 -116 42t-44 107z" />
<glyph unicode="&#x201c;" horiz-adv-x="1005" d="M115 1153q0 190 250 399l57 -57q-47 -53 -78 -105.5t-45 -103.5h18q72 0 116 -42t44 -107q0 -37 -14 -70t-39 -57.5t-57.5 -39t-71.5 -14.5q-78 0 -129 52.5t-51 144.5zM551 1153q0 190 250 399l57 -57q-47 -53 -77.5 -105.5t-45.5 -103.5h19q72 0 115.5 -42t43.5 -107 q0 -37 -14 -70t-38.5 -57.5t-57.5 -39t-72 -14.5q-78 0 -129 52.5t-51 144.5z" />
<glyph unicode="&#x201d;" horiz-adv-x="1005" d="M102 1372q0 37 14.5 70t39 57.5t57.5 38.5t72 14q78 0 129 -52t51 -144q0 -190 -248 -400l-57 56q88 102 121 211h-19q-72 0 -116 42t-44 107zM539 1372q0 37 14 70t38.5 57.5t57.5 38.5t72 14q78 0 129 -52t51 -144q0 -190 -248 -400l-57 56q47 53 75.5 106t45.5 105 h-19q-72 0 -115.5 42t-43.5 107z" />
<glyph unicode="&#x201e;" horiz-adv-x="1005" d="M102 174q0 37 14.5 69.5t39 57.5t57.5 39t72 14q78 0 129 -52t51 -144q0 -190 -248 -400l-57 56q90 104 121 211h-19q-72 0 -116 42t-44 107zM539 174q0 37 14 69.5t38.5 57.5t57.5 39t72 14q78 0 129 -52t51 -144q0 -190 -248 -400l-57 56q90 104 121 211h-19 q-72 0 -115.5 42t-43.5 107z" />
<glyph unicode="&#x2022;" horiz-adv-x="1208" d="M307 762q0 61 23.5 114.5t63.5 93.5t94.5 63.5t115.5 23.5t114.5 -23.5t93.5 -63.5t63.5 -93.5t23.5 -114.5t-23.5 -114.5t-63.5 -94.5t-94 -64.5t-116 -23.5q-61 0 -115.5 23.5t-94.5 63.5t-62.5 94.5t-22.5 115.5z" />
<glyph unicode="&#x2026;" horiz-adv-x="2048" d="M137 184q0 41 15.5 78t43 65.5t64.5 45t80 16.5q86 0 145.5 -59.5t59.5 -145.5q0 -43 -16.5 -79.5t-45 -64.5t-65.5 -43t-78 -15t-78 16t-64.5 44t-44 64.5t-16.5 77.5zM819 184q0 41 15.5 78t43 65.5t64.5 45t80 16.5q86 0 145.5 -59.5t59.5 -145.5q0 -43 -16.5 -79.5 t-45 -64.5t-65.5 -43t-78 -15t-78 16t-64.5 44t-44 64.5t-16.5 77.5zM1503 184q0 41 15.5 78t43 65.5t64.5 45t80 16.5q86 0 145.5 -59.5t59.5 -145.5q0 -43 -16.5 -79.5t-45 -64.5t-65.5 -43t-78 -15t-78 16t-64.5 44t-44 64.5t-16.5 77.5z" />
<glyph unicode="&#x202f;" horiz-adv-x="406" />
<glyph unicode="&#x2039;" horiz-adv-x="626" d="M92 578l174 380h289l-170 -380l170 -379h-289z" />
<glyph unicode="&#x203a;" horiz-adv-x="626" d="M72 199l170 379l-170 380h286l177 -380l-177 -379h-286z" />
<glyph unicode="&#x205f;" horiz-adv-x="508" />
<glyph unicode="&#x2122;" horiz-adv-x="1705" d="M164 1317v151h526v-151h-162v-408h-202v408h-162zM788 909v559h256l99 -266l98 266h256v-559h-182v367l-137 -367h-70l-137 367v-367h-183z" />
<glyph unicode="&#xe000;" horiz-adv-x="1116" d="M0 0v1116h1116v-1116h-1116z" />
<glyph unicode="&#xfb01;" horiz-adv-x="1460" d="M125 0v252q31 10 40 47t9 111v452h-49v256h49v43q0 199 83 290t275 91q119 0 218 -31v-241q-12 0 -21.5 1t-17.5 1q-119 0 -119 -139v-15h131v-256h-131v-452q0 -74 9 -111t46 -47v-252h-522zM856 0v252q55 14 55 141v355q0 47 -10 74.5t-45 43.5v252h473v-719 q0 -61 10.5 -96t38.5 -51v-252h-522zM879 1358q0 72 61 122t162 50q98 0 160.5 -50t62.5 -122t-61.5 -122t-161.5 -50t-161.5 50t-61.5 122z" />
<glyph unicode="&#xfb02;" horiz-adv-x="1460" d="M125 0v252q31 10 40 47t9 111v452h-49v256h49v43q0 199 83 290t275 91q119 0 218 -31v-241q-12 0 -21.5 1t-17.5 1q-119 0 -119 -139v-15h131v-256h-131v-452q0 -74 9 -111t46 -47v-252h-522zM856 0v252q55 14 55 141v758q0 47 -10 74.5t-45 44.5v252h473v-1123 q0 -61 10.5 -96t38.5 -51v-252h-522z" />
</font>
</defs>
</svg>
