<?xml version="1.0" standalone="no"?>
<!DOCTYPE svg PUBLIC "-//W3C//DTD SVG 1.1//EN" "http://www.w3.org/Graphics/SVG/1.1/DTD/svg11.dtd" >
<svg xmlns="http://www.w3.org/2000/svg">
<metadata>Generated by IcoMoon</metadata>
<defs>
<font id="aec-icons" horiz-adv-x="1024">
<font-face units-per-em="1024" ascent="960" descent="-64" />
<missing-glyph horiz-adv-x="1024" />
<glyph unicode="&#x20;" horiz-adv-x="512" d="" />
<glyph unicode="&#xe600;" glyph-name="search" d="M992.262 88.604l-242.552 206.294c-25.074 22.566-51.89 32.926-73.552 31.926 57.256 67.068 91.842 154.078 91.842 249.176 0 212.078-171.922 384-384 384-212.076 0-384-171.922-384-384s171.922-384 384-384c95.098 0 182.108 34.586 249.176 91.844-1-21.662 9.36-48.478 31.926-73.552l206.294-242.552c35.322-39.246 93.022-42.554 128.22-7.356s31.892 92.898-7.354 128.22zM384 320c-141.384 0-256 114.616-256 256s114.616 256 256 256 256-114.616 256-256-114.614-256-256-256z" />
<glyph unicode="&#xe601;" glyph-name="tick" horiz-adv-x="1111" d="M1061.463 891.317l-24.976 18.732c-31.22 24.976-81.171 18.732-106.146-12.488l-543.22-699.317-193.561 224.78c-31.22 31.22-74.927 37.463-106.146 6.244l-24.976-18.732c-31.22-24.976-37.463-74.927-6.244-106.146l274.732-324.683c24.976-31.22 87.415-49.951 131.122 12.488l611.902 792.976c24.976 31.22 18.732 81.171-12.488 106.146z" />
<glyph unicode="&#xe602;" glyph-name="menu" horiz-adv-x="1194" d="M1074.258 727.558h-942.331c-50.258 0-94.233 43.975-94.233 94.233s43.975 94.233 94.233 94.233h942.331c50.258 0 94.233-43.975 94.233-94.233s-43.975-94.233-94.233-94.233zM1074.258 350.626h-942.331c-50.258 0-94.233 43.975-94.233 94.233s43.975 94.233 94.233 94.233h942.331c50.258 0 94.233-43.975 94.233-94.233s-43.975-94.233-94.233-94.233zM1074.258-32.589h-942.331c-50.258 0-94.233 43.975-94.233 94.233s43.975 94.233 94.233 94.233h942.331c50.258 0 94.233-43.975 94.233-94.233s-43.975-94.233-94.233-94.233z" />
<glyph unicode="&#xe605;" glyph-name="help" d="M188.013 677.98c0 43.646 13.43 87.292 40.289 130.938s67.148 80.577 120.866 107.436 114.151 43.646 184.656 43.646c63.79 0 124.223-13.43 174.584-36.931s87.292-57.075 117.508-97.364 40.289-87.292 40.289-134.295c0-36.931-6.715-70.505-23.502-100.721s-33.574-53.718-53.718-73.862c-20.144-20.144-60.433-57.075-114.151-104.079-16.787-13.43-26.859-26.859-36.931-36.931s-16.787-20.144-20.144-30.216c-3.357-10.072-6.715-16.787-10.072-26.859s-6.715-23.502-10.072-47.003c-10.072-47.003-36.931-70.505-80.577-70.505-23.502 0-43.646 6.715-60.433 23.502s-23.502 36.931-23.502 67.148c0 36.931 6.715 70.505 16.787 97.364s26.859 50.361 47.003 73.862c20.144 20.144 47.003 47.003 77.22 73.862s50.361 43.646 63.79 57.075c13.43 13.43 23.502 26.859 33.574 43.646s13.43 33.574 13.43 50.361c0 36.931-13.43 67.148-40.289 90.649s-60.433 36.931-104.079 36.931c-50.361 0-87.292-13.43-110.793-36.931s-43.646-60.433-60.433-110.793c-16.787-50.361-43.646-77.22-87.292-77.22-26.859 0-47.003 10.072-63.79 26.859s-30.216 40.289-30.216 60.433zM517.036-64c-26.859 0-50.361 10.072-70.505 26.859s-30.216 43.646-30.216 73.862c0 26.859 10.072 53.718 30.216 70.505 20.144 20.144 43.646 30.216 73.862 30.216 26.859 0 53.718-10.072 70.505-30.216 20.144-20.144 30.216-43.646 30.216-70.505 0-30.216-10.072-57.075-30.216-73.862-23.502-16.787-47.003-26.859-73.862-26.859z" />
<glyph unicode="&#xe606;" glyph-name="lock" d="M93.76-64v564.992h109.056v176.512c0 155.968 130.304 282.496 291.008 282.496h36.352c160.768 0 290.944-126.528 290.944-282.496v-176.512h109.12v-564.992h-836.48zM484.544 226.048l-27.072-184.128h109.056l-27.136 184.128c26.56 10.496 45.312 35.776 45.312 65.344 0 38.912-32.576 70.656-72.704 70.656-40.192 0-72.832-31.68-72.832-70.656 0.064-29.568 18.816-54.848 45.376-65.344zM712 659.84c0 107.328-89.472 194.24-199.936 194.24-110.592 0-200.128-86.912-200.128-194.24v-158.848h400.064v158.848z" />
<glyph unicode="&#xe607;" glyph-name="home" horiz-adv-x="1084" d="M844.017 650.391v227.087c0 17.95-13.131 32.467-29.756 32.467h-60.356c-16.625 0-30.359-14.517-30.359-32.467v-97.28l-159.503 171.671c-11.806 12.71-30.78 12.71-42.526 0l-514.65-538.082c-11.806-12.649-7.831-22.95 8.794-22.95h105.532v-421.768c0-17.95 12.951-32.407 29.636-32.407h241.242c16.625 0 30.298 14.456 30.298 32.407v259.554c0 17.95 13.372 32.467 29.997 32.467h180.947c16.625 0 29.997-14.517 29.997-32.467v-259.554c0-17.95 13.673-32.407 30.298-32.407h241.242c16.685 0 29.636 14.456 29.636 32.407v421.768h104.207c16.625 0 20.36 10.3 8.614 22.95l-233.291 236.604z" />
<glyph unicode="&#xe609;" glyph-name="close" d="M1004.612 134.724l-313.89 313.958 313.89 313.89c24.917 24.713 24.917 64.853 0 89.634l-89.702 89.702c-24.781 24.781-64.922 24.781-89.634 0l-313.958-313.89-313.89 313.89c-24.781 24.781-64.853 24.781-89.634 0l-89.702-89.702c-24.917-24.781-24.917-64.922 0-89.634l313.89-313.89-313.89-313.958c-24.917-24.713-24.917-64.853 0-89.634l89.702-89.702c24.781-24.781 64.853-24.781 89.634 0l313.89 313.89 313.958-313.89c24.713-24.781 64.853-24.781 89.634 0l89.702 89.702c24.917 24.781 24.917 64.922 0 89.634z" />
<glyph unicode="&#xe60a;" glyph-name="chevron-right" d="M755.784 448c0-32.676-12.718-63.396-35.84-86.518l-346.849-346.849c-23.992-23.992-62.894-23.992-86.886 0s-23.992 62.894 0 86.886l346.86 346.86-346.87 346.102c-23.992 23.982-23.992 62.904 0 86.876 23.992 24.003 62.894 24.003 86.886 0l346.849-346.86c23.122-23.112 35.85-53.832 35.85-86.497z" />
<glyph unicode="&#xe60b;" glyph-name="chevron-down" d="M512 204.206c-32.676 0-63.396 12.728-86.508 35.84l-346.86 346.86c-23.992 23.992-23.992 62.894 0 86.886s62.894 23.992 86.886 0l346.86-346.86 346.102 346.86c23.982 23.992 62.904 23.992 86.876 0 24.003-23.992 24.003-62.894 0-86.886l-346.86-346.86c-23.112-23.112-53.832-35.84-86.497-35.84z" />
<glyph unicode="&#xe617;" glyph-name="chevron-left" d="M268.206 448c0 32.676 12.718 63.396 35.84 86.518l346.849 346.849c24.003 23.992 62.904 23.992 86.886 0s23.992-62.894 0-86.886l-346.849-346.86 346.86-346.102c23.992-23.982 23.992-62.904 0-86.876-23.992-24.003-62.894-24.003-86.886 0l-346.86 346.86c-23.112 23.112-35.84 53.832-35.84 86.497z" />
<glyph unicode="&#xe618;" glyph-name="click" d="M960 352v160c0 52.934-43.066 96-96 96-17.104 0-33.176-4.494-47.098-12.368-17.076 26.664-46.958 44.368-80.902 44.368-24.564 0-47.004-9.274-64-24.504-16.996 15.23-39.436 24.504-64 24.504-11.214 0-21.986-1.934-32-5.484v229.484c0 52.934-43.066 96-96 96s-96-43.066-96-96v-394.676l-176.018 93.836c-14.536 8.4-31.126 12.84-47.982 12.84-52.934 0-96-43.066-96-96 0-26.368 10.472-50.954 29.49-69.226 0.248-0.238 0.496-0.47 0.75-0.7l239.17-218.074h-45.41c-17.672 0-32-14.326-32-32v-192c0-17.674 14.328-32 32-32h640c17.674 0 32 14.326 32 32v192c0 17.674-14.326 32-32 32h-44.222l72.844 145.69c2.222 4.442 3.378 9.342 3.378 14.31zM896 96c0-17.674-14.326-32-32-32s-32 14.326-32 32 14.326 32 32 32 32-14.326 32-32zM896 359.554l-83.776-167.554h-383.826l-290.818 265.166c-6.18 6.070-9.58 14.164-9.58 22.834 0 17.644 14.356 32 32 32 5.46 0 10.612-1.31 15.324-3.894 0.53-0.324 1.070-0.632 1.622-0.926l224-119.416c9.92-5.288 21.884-4.986 31.52 0.8 9.638 5.782 15.534 16.196 15.534 27.436v448c0 17.644 14.356 32 32 32s32-14.356 32-32v-320c0-17.672 14.326-32 32-32s32 14.328 32 32c0 17.644 14.356 32 32 32s32-14.356 32-32c0-17.672 14.326-32 32-32s32 14.328 32 32c0 17.644 14.356 32 32 32s32-14.356 32-32v-32c0-17.672 14.326-32 32-32s32 14.328 32 32c0 17.644 14.356 32 32 32s32-14.356 32-32v-152.446z" />
<glyph unicode="&#xe619;" glyph-name="tick-handdrawn" d="M804.571 905.143c-196.754-196.023-357.669-422.766-479.086-670.72-29.257 65.097-57.783 130.926-87.040 196.023-36.571 83.383-194.56 25.6-157.989-57.783 54.126-122.149 108.251-244.297 162.377-365.714 32.914-73.874 135.314-40.96 159.451 21.211 117.029 298.423 296.229 567.589 522.971 793.6 77.531 77.531-54.857 149.943-120.686 83.383z" />
<glyph unicode="&#xe900;" glyph-name="prompt" d="M229.916 618.636v-418.076c0-28.708 21.624-49.008 50.328-49.008h385.804c24.268 0 43.864 16.712 43.864 40.972v47.608c0 24.256-19.592 45.608-43.864 45.608h30.108c24.268 0 44.728 18 44.728 42.264v47.6c0 24.272-20.456 44.328-44.728 44.328h63.228c24.268 0 43.432 19.284 43.432 43.552v47.6c0 24.276-19.164 43.040-43.432 43.040h219.78c24.268 0 45.584 20.58 45.584 44.844v47.608c0 24.272-21.316 46.904-45.584 46.904h-454.28l31.76 23.368c33.568 26.492 39.288 74.432 12.784 107.988-26.492 33.556-75.184 38.912-108.74 12.416l-201.392-157.64c-18.484-14.6-29.296-34.336-29.296-60.244zM167.98 181.848c0-16.728-13.564-30.292-30.292-30.292h-104.58c-16.728 0-30.292 13.568-30.292 30.292v481.352c0 16.732 13.564 30.292 30.292 30.292h104.58c16.728 0 30.292-13.564 30.292-30.292v-481.352z" />
<glyph unicode="&#xe901;" glyph-name="tip" d="M512.006 813.025c18.793 0 33.985 15.212 33.985 33.974v79.029c0 18.766-15.189 33.972-33.985 33.972-18.775 0-33.964-15.206-33.964-33.972v-79.029c0.002-18.762 15.191-33.974 33.964-33.974zM289.077 763.53c6.672-9.16 17.024-14.024 27.547-14.024 6.898 0 13.893 2.111 19.928 6.489 15.166 11.018 18.551 32.261 7.534 47.436l-46.446 63.96c-11.045 15.164-32.247 18.582-47.465 7.532-15.162-11.012-18.547-32.261-7.53-47.436l46.432-63.958zM734.885 265.541c-11.018 15.164-32.247 18.528-47.452 7.509-15.152-11.027-18.534-32.276-7.487-47.448l46.473-63.96c6.628-9.14 16.981-14.007 27.51-14.007 6.923 0 13.891 2.111 19.926 6.489 15.164 11.029 18.545 32.278 7.505 47.459l-46.476 63.958zM206.355 649.574l-75.182 24.451c-18.014 5.805-37.010-3.963-42.821-21.815-5.813-17.829 3.949-37.004 21.792-42.809l75.182-24.451c3.511-1.128 7.024-1.678 10.506-1.678 14.33 0 27.632 9.123 32.315 23.489 5.811 17.833-3.949 37.010-21.792 42.813zM913.852 419.677l-75.165 24.416c-17.858 5.761-37-3.978-42.801-21.809-5.811-17.848 3.978-37.017 21.819-42.817l75.182-24.412c3.488-1.132 6.995-1.676 10.483-1.676 14.326 0 27.628 9.14 32.311 23.485 5.794 17.856-3.98 37.008-21.83 42.813zM185.352 444.093l-75.209-24.383c-17.844-5.786-27.632-24.94-21.819-42.794 4.641-14.368 17.968-23.507 32.299-23.507 3.459 0 7.012 0.556 10.496 1.684l75.195 24.38c17.858 5.79 27.645 24.949 21.836 42.794-5.77 17.835-24.787 27.589-42.796 21.825zM828.201 583.275c3.486 0 6.995 0.55 10.486 1.678l75.165 24.416c17.85 5.805 27.624 24.967 21.828 42.809-5.813 17.835-25.048 27.583-42.794 21.813l-75.182-24.412c-17.844-5.803-27.628-24.965-21.819-42.811 4.672-14.353 17.987-23.493 32.317-23.493zM289.123 265.553l-46.519-63.921c-11.045-15.175-7.688-36.423 7.505-47.456 6.006-4.395 13.003-6.508 19.928-6.508 10.523 0 20.876 4.845 27.508 13.986l46.517 63.923c11.045 15.172 7.688 36.423-7.505 47.459-15.125 11.093-36.463 7.694-47.434-7.483zM726.389 867.393l-46.446-63.96c-11.016-15.175-7.634-36.421 7.536-47.436 6.035-4.378 13.028-6.489 19.924-6.489 10.523 0 20.871 4.861 27.531 14.024l46.446 63.96c11.014 15.175 7.632 36.423-7.536 47.436-15.247 11.077-36.409 7.663-47.454-7.534zM757.366 513.279c0 135.536-109.866 245.408-245.385 245.408-135.546 0-245.414-109.872-245.414-245.408 0-57.175 19.664-109.677 52.515-151.353 28.787-36.523 56.051-76.399 79.678-116.525v-81.518h225.051v79.355c23.408 39.024 53.674 83.957 81.014 118.648 32.877 41.691 52.542 94.183 52.542 151.393zM628.261 99.49c0.002 14.061-11.419 25.473-25.486 25.473h-181.661c-14.063 0-25.473-11.413-25.473-25.473 0-9.731 5.463-18.186 13.48-22.477v-41.424h-0.050c0-31.666 24.855-57.311 56.096-59.114 3.455-22.867 22.991-40.478 46.841-40.478 23.825 0 43.406 17.601 46.847 40.478 30.917 1.825 55.524 27.031 55.947 58.303h0.114v42.301c7.945 4.318 13.345 12.736 13.345 22.41z" />
<glyph unicode="&#xe91f;" glyph-name="resources" d="M896 832v-832h-672c-53.026 0-96 42.98-96 96s42.974 96 96 96h608v768h-640c-70.398 0-128-57.6-128-128v-768c0-70.4 57.602-128 128-128h768v896h-64zM224.056 128v0c-0.018-0.002-0.038 0-0.056 0-17.672 0-32-14.326-32-32s14.328-32 32-32c0.018 0 0.038 0.002 0.056 0.002v-0.002h607.89v64h-607.89z" />
<glyph unicode="&#xe984;" glyph-name="replay" d="M1024 576h-384l143.53 143.53c-72.53 72.526-168.96 112.47-271.53 112.47s-199-39.944-271.53-112.47c-72.526-72.53-112.47-168.96-112.47-271.53s39.944-199 112.47-271.53c72.53-72.526 168.96-112.47 271.53-112.47s199 39.944 271.528 112.472c6.056 6.054 11.86 12.292 17.456 18.668l96.32-84.282c-93.846-107.166-231.664-174.858-385.304-174.858-282.77 0-512 229.23-512 512s229.23 512 512 512c141.386 0 269.368-57.326 362.016-149.984l149.984 149.984v-384z" />
<glyph unicode="&#xea27;" glyph-name="volume" d="M719.53 128.47c-12.286 0-24.566 4.686-33.942 14.056-18.744 18.744-18.744 49.136 0 67.882 131.006 131.006 131.006 344.17 0 475.176-18.744 18.746-18.744 49.138 0 67.882 18.744 18.742 49.138 18.744 67.882 0 81.594-81.59 126.53-190.074 126.53-305.466 0-115.39-44.936-223.876-126.53-305.47-9.372-9.374-21.656-14.060-33.94-14.060v0zM549.020 218.98c-12.286 0-24.566 4.686-33.942 14.058-18.746 18.746-18.746 49.134 0 67.88 81.1 81.1 81.1 213.058 0 294.156-18.746 18.746-18.746 49.138 0 67.882s49.136 18.744 67.882 0c118.53-118.53 118.53-311.392 0-429.922-9.372-9.368-21.656-14.054-33.94-14.054zM416.006 0c-8.328 0-16.512 3.25-22.634 9.374l-246.626 246.626h-114.746c-17.672 0-32 14.326-32 32v320c0 17.672 14.328 32 32 32h114.746l246.626 246.628c9.154 9.154 22.916 11.89 34.874 6.936 11.958-4.952 19.754-16.622 19.754-29.564v-832c0-12.944-7.796-24.612-19.754-29.564-3.958-1.64-8.118-2.436-12.24-2.436z" />
<glyph unicode="&#xea2a;" glyph-name="volume-mute" d="M960 340.852v-84.852h-84.852l-107.148 107.148-107.148-107.148h-84.852v84.852l107.148 107.148-107.148 107.148v84.852h84.852l107.148-107.148 107.148 107.148h84.852v-84.852l-107.148-107.148 107.148-107.148zM416.006 0c-8.328 0-16.512 3.25-22.634 9.374l-246.626 246.626h-114.746c-17.672 0-32 14.326-32 32v320c0 17.672 14.328 32 32 32h114.746l246.626 246.628c9.154 9.154 22.916 11.89 34.874 6.936 11.958-4.952 19.754-16.622 19.754-29.564v-832c0-12.944-7.796-24.612-19.754-29.564-3.958-1.64-8.118-2.436-12.24-2.436z" />
<glyph unicode="&#xea3c;" glyph-name="next" d="M621.254 82.746l320 320c24.994 24.992 24.994 65.516 0 90.51l-320 320c-24.994 24.992-65.516 24.992-90.51 0-24.994-24.994-24.994-65.516 0-90.51l210.746-210.746h-613.49c-35.346 0-64-28.654-64-64s28.654-64 64-64h613.49l-210.746-210.746c-12.496-12.496-18.744-28.876-18.744-45.254s6.248-32.758 18.744-45.254c24.994-24.994 65.516-24.994 90.51 0z" />
<glyph unicode="&#xea40;" glyph-name="back" d="M402.746 82.746l-320 320c-24.994 24.992-24.994 65.516 0 90.51l320 320c24.994 24.992 65.516 24.992 90.51 0 24.994-24.994 24.994-65.516 0-90.51l-210.746-210.746h613.49c35.346 0 64-28.654 64-64s-28.654-64-64-64h-613.49l210.746-210.746c12.496-12.496 18.744-28.876 18.744-45.254s-6.248-32.758-18.744-45.254c-24.994-24.994-65.516-24.994-90.51 0z" />
</font>
</defs>
</svg>
