<?xml version="1.0" standalone="no"?>
<!DOCTYPE svg PUBLIC "-//W3C//DTD SVG 1.1//EN" "http://www.w3.org/Graphics/SVG/1.1/DTD/svg11.dtd" >
<svg xmlns="http://www.w3.org/2000/svg">
<metadata>Generated by IcoMoon</metadata>
<defs>
<font id="asicNextgen" horiz-adv-x="1024">
<font-face units-per-em="1024" ascent="960" descent="-64" />
<missing-glyph horiz-adv-x="1024" />
<glyph unicode="&#x20;" horiz-adv-x="512" d="" />
<glyph unicode="&#xe009;" glyph-name="ribbon" d="M298.667 896h426.667q53 0 90.5-37.5t37.5-90.5v-810.667l-341.333 256-341.333-256v810.667q0 53 37.5 90.5t90.5 37.5zM725.333 810.667h-426.667q-17.667 0-30.167-12.5t-12.5-30.167v-640l256 192 256-192v640q0 17.667-12.5 30.167t-30.167 12.5z" />
<glyph unicode="&#xe020;" glyph-name="printer" d="M384 853.334h256q53 0 90.5-37.5t37.5-90.5v-213.333h85.333q53 0 90.5-37.5t37.5-90.5v-170.667q0-53-37.5-90.5t-90.5-37.5h-92.667q-13.333-37.667-46.333-61.5t-74.333-23.833h-256q-41.333 0-74.333 23.833t-46.333 61.5h-92.667q-53 0-90.5 37.5t-37.5 90.5v170.667q0 53 37.5 90.5t90.5 37.5h85.333v213.333q0 53 37.5 90.5t90.5 37.5zM640 170.667h-256q-17.667 0-30.167-12.5t-12.5-30.167 12.5-30.167 30.167-12.5h256q17.667 0 30.167 12.5t12.5 30.167-12.5 30.167-30.167 12.5zM853.333 426.667h-682.667q-17.667 0-30.167-12.5t-12.5-30.167v-170.667q0-17.667 12.5-30.167t30.167-12.5h92.667q13.333 37.667 46.333 61.5t74.333 23.833h256q41.333 0 74.333-23.833t46.333-61.5h92.667q17.667 0 30.167 12.5t12.5 30.167v170.667q0 17.667-12.5 30.167t-30.167 12.5zM640 768h-256q-17.667 0-30.167-12.5t-12.5-30.167v-213.333h341.333v213.333q0 17.667-12.5 30.167t-30.167 12.5z" />
<glyph unicode="&#xe055;" glyph-name="fast-forward" d="M469.333 768q17.667 0 30-12.333l298.667-298.667q12.667-12.667 12.667-30.333t-12.667-30.333l-298.667-298.667q-12.333-12.333-30-12.333t-30.167 12.5-12.5 30.167q0 18 12.333 30.333l268.333 268.333-268.333 268.333q-12.333 12.333-12.333 30.333 0 18.333 12.167 30.5t30.5 12.167zM213.333 768q17.667 0 30-12.333l298.667-298.667q12.667-12.667 12.667-30.333t-12.667-30.333l-298.667-298.667q-12.333-12.333-30-12.333t-30.167 12.5-12.5 30.167q0 18 12.333 30.333l268.333 268.333-268.333 268.333q-12.333 12.333-12.333 30.333 0 18.333 12.167 30.5t30.5 12.167z" />
<glyph unicode="&#xe070;" glyph-name="location" d="M0 469.334l1024 469.333-469.333-1024-128 426.667zM571.333 156l279.333 609.333-609.333-279.333 254-76z" />
<glyph unicode="&#xe072;" glyph-name="map" d="M682.667 725.334l341.333 213.333v-810.667l-341.333-213.333-341.333 213.333-341.333-213.333v810.667l341.333 213.333zM298.667 202v609l-213.333-133.333v-609zM640 651.334l-256 160.333v-609.667l256-160v609.333zM938.667 175.334v609.333l-213.333-133.333v-609.333z" />
<glyph unicode="&#xe114;" glyph-name="plus" d="M512 853.334q17.667 0 30.167-12.5t12.5-30.167v-341.333h341.333q17.667 0 30.167-12.5t12.5-30.167-12.5-30.167-30.167-12.5h-341.333v-341.333q0-17.667-12.5-30.167t-30.167-12.5-30.167 12.5-12.5 30.167v341.333h-341.333q-17.667 0-30.167 12.5t-12.5 30.167 12.5 30.167 30.167 12.5h341.333v341.333q0 17.667 12.5 30.167t30.167 12.5z" />
<glyph unicode="&#xe115;" glyph-name="minus" d="M128 469.334h768q17.667 0 30.167-12.5t12.5-30.167-12.5-30.167-30.167-12.5h-768q-17.667 0-30.167 12.5t-12.5 30.167 12.5 30.167 30.167 12.5z" />
<glyph unicode="&#xe116;" glyph-name="check" d="M896 725.334q18.333 0 30.5-12.167t12.167-30.5q0-18-12.333-30.333l-512-512q-12.333-12.333-30.333-12.333t-30.333 12.333l-256 256q-12.333 12.333-12.333 30.333 0 18.333 12.167 30.5t30.5 12.167q18 0 30.333-12.333l225.667-226 481.667 482q12.333 12.333 30.333 12.333z" />
<glyph unicode="&#xe117;" glyph-name="cross" d="M810.667 768q18.333 0 30.5-12.167t12.167-30.5q0-18-12.333-30.333l-268.667-268.333 268.667-268.333q12.333-12.333 12.333-30.333 0-18.333-12.167-30.5t-30.5-12.167q-18 0-30.333 12.333l-268.333 268.667-268.333-268.667q-12.333-12.333-30.333-12.333-18.333 0-30.5 12.167t-12.167 30.5q0 18 12.333 30.333l268.667 268.333-268.667 268.333q-12.333 12.333-12.333 30.333 0 18.333 12.167 30.5t30.5 12.167q18 0 30.333-12.333l268.333-268.667 268.333 268.667q12.333 12.333 30.333 12.333z" />
<glyph unicode="&#xe600;" glyph-name="menu" d="M961.195 670.549h-898.389c-34.133 0-62.805 27.989-62.805 62.805v55.979c0 34.133 27.989 62.805 62.805 62.805h898.389c34.133 0 62.805-27.989 62.805-62.805v-55.979c0-34.133-27.989-62.805-62.805-62.805zM961.195 354.475h-898.389c-34.133 0-62.805 27.989-62.805 62.805v55.979c0 34.133 27.989 62.805 62.805 62.805h898.389c34.133 0 62.805-27.989 62.805-62.805v-55.979c0-34.816-27.989-62.805-62.805-62.805zM961.195 38.4h-898.389c-34.133 0-62.805 27.989-62.805 62.805v55.979c0 34.133 27.989 62.805 62.805 62.805h898.389c34.133 0 62.805-27.989 62.805-62.805v-55.979c0-34.816-27.989-62.805-62.805-62.805z" />
<glyph unicode="&#xe601;" glyph-name="book" d="M133.803-27.819h768c21.163 0 38.229 17.067 38.229 38.229s-17.067 38.229-38.229 38.229h-729.771v152.235h729.771c21.163 0 38.229 17.067 38.229 38.229v651.947c0 21.163-17.067 38.229-38.229 38.229h-503.808v30.037l-152.917 0.683v-30.037h-111.275c-21.163 0-38.229-17.749-38.229-38.912v-881.323c0-20.48 17.067-37.547 38.229-37.547zM172.032 852.821h73.045v-227.328l76.459 53.931 76.459-53.931v227.328h465.579v-574.805h-691.541v574.805zM901.803 165.376h-654.677c-21.163 0-38.229-17.067-38.229-38.229s17.067-38.229 38.229-38.229h654.677c21.163 0 38.229 17.067 38.229 38.229s-17.067 38.229-38.229 38.229z" />
<glyph unicode="&#xe602;" glyph-name="down" d="M998.741 704.683c-33.451 34.133-88.064 34.133-121.515 0l-365.227-374.101-365.227 374.101c-33.451 34.133-88.064 34.133-121.515 0s-33.451-90.112 0-124.928l425.984-436.907c33.451-34.133 88.064-34.133 121.515 0l425.984 436.907c33.451 34.816 33.451 90.795 0 124.928z" />
<glyph unicode="&#xe603;" glyph-name="file" d="M91.477-18.944c0-21.163 17.067-38.229 38.229-38.229h770.048c21.163 0 38.229 17.067 37.547 38.229v500.395c0 21.163-17.067 38.229-38.229 38.229s-37.547-17.067-38.229-38.229v-462.848h-694.272v845.824h382.976v-276.48c0-21.163 17.067-38.229 38.229-38.229h311.296c4.779 0 9.557 0.683 13.653 2.731 0 0 0.683 0 0.683 0 4.779 2.048 8.875 4.779 12.288 8.192 0 0 0 0 0 0s0 0 0 0c3.413 3.413 6.144 7.509 8.192 12.288 0 0 0 0 0 0.683 1.365 4.096 2.731 8.875 2.731 13.653 0 0 0 0 0 0s0 0 0 0c0 4.779-0.683 9.557-2.731 13.653 0 0 0 0.683 0 0.683-2.048 4.779-4.779 8.875-8.192 12.288 0 0 0 0 0 0l-311.296 314.027c0 0 0 0 0 0-2.731 4.779-6.827 7.509-11.605 9.557 0 0 0 0-0.683 0-4.096 1.365-8.875 2.731-13.653 2.731 0 0 0 0 0 0s0 0 0 0h-458.752c-21.163 0-38.229-17.067-38.229-38.229v-920.917zM808.277 626.176h-182.272v184.32l182.272-184.32z" />
<glyph unicode="&#xe604;" glyph-name="magnifying-glass" d="M881.323 818.005c-71.68 71.68-166.571 110.592-267.605 110.592s-195.925-39.595-267.605-110.592c-147.456-147.456-147.456-387.072 0-534.528 71.68-71.68 166.571-110.592 267.605-110.592s195.925 39.595 267.605 110.592c71.68 71.68 110.592 166.571 110.592 267.605 0 100.352-38.912 195.925-110.592 266.923zM831.488 333.312c-58.027-58.027-135.168-90.112-217.771-90.112-81.92 0-159.061 32.085-217.771 90.112-120.149 120.149-120.149 315.392 0 434.859 58.027 58.027 135.168 90.112 217.771 90.112 81.92 0 159.061-32.085 217.771-90.112 58.027-58.027 90.112-135.168 90.112-217.771 0-81.92-32.085-159.061-90.112-217.088zM613.717 794.795c-134.485 0-244.395-109.227-244.395-244.395 0-19.797 15.701-35.499 35.499-35.499 19.115 0 35.499 15.701 35.499 35.499 0 95.573 77.824 173.397 173.397 173.397s173.397-77.824 173.397-173.397c0-19.797 15.701-35.499 35.499-35.499s35.499 15.701 35.499 35.499c0 135.168-109.227 244.395-244.395 244.395zM32.768 90.965c0-32.085 12.288-62.123 34.816-84.651l2.731-2.731c23.211-23.211 53.931-34.816 84.651-34.816s61.44 11.605 84.651 34.816l157.013 157.013c13.653 13.653 13.653 36.181 0 49.835s-36.181 13.653-49.835 0l-157.013-157.013c-19.115-19.115-50.517-19.115-69.632 0l-2.731 2.731c-8.875 8.875-14.336 21.845-14.336 34.816s4.779 25.259 14.336 34.816l157.013 157.013c13.653 13.653 13.653 36.181 0 49.835s-36.181 13.653-49.835 0l-157.013-157.013c-22.528-22.528-34.816-52.565-34.816-84.651z" />
<glyph unicode="&#xe605;" glyph-name="up" d="M998.741 204.971c-33.451-34.133-88.064-34.133-121.515 0l-365.227 374.101-365.227-374.101c-33.451-34.133-88.064-34.133-121.515 0s-33.451 90.112 0 124.928l425.984 436.907c33.451 34.133 88.064 34.133 121.515 0l425.984-436.907c33.451-34.816 33.451-90.795 0-124.928z" />
<glyph unicode="&#xe606;" glyph-name="checkbox-checked" d="M896 960h-768c-70.4 0-128-57.6-128-128v-768c0-70.4 57.6-128 128-128h768c70.4 0 128 57.6 128 128v768c0 70.4-57.6 128-128 128zM448 165.49l-237.254 237.256 90.51 90.508 146.744-146.744 306.746 306.746 90.508-90.51-397.254-397.256z" />
<glyph unicode="&#xe607;" glyph-name="checkbox-unchecked" d="M896 960h-768c-70.4 0-128-57.6-128-128v-768c0-70.4 57.6-128 128-128h768c70.4 0 128 57.6 128 128v768c0 70.4-57.6 128-128 128zM896 64h-768v768h768v-768z" />
<glyph unicode="&#xe608;" glyph-name="radio-checked2" d="M512 960c-282.77 0-512-229.23-512-512s229.23-512 512-512 512 229.23 512 512-229.23 512-512 512zM512 320c-70.692 0-128 57.306-128 128 0 70.692 57.308 128 128 128 70.694 0 128-57.308 128-128 0-70.694-57.306-128-128-128z" />
<glyph unicode="&#xe609;" glyph-name="radio-unchecked" d="M512 960c-282.77 0-512-229.23-512-512s229.23-512 512-512 512 229.23 512 512-229.23 512-512 512zM512 64c-212.078 0-384 171.922-384 384s171.922 384 384 384c212.078 0 384-171.922 384-384s-171.922-384-384-384z" />
<glyph unicode="&#xe60a;" glyph-name="left" d="M418.475 448l374.101 365.227c34.133 33.451 34.133 88.064 0 121.515s-90.112 33.451-124.928 0l-436.907-425.984c-34.133-33.451-34.133-88.064 0-121.515l436.907-425.984c34.133-33.451 90.112-33.451 124.928 0 34.133 33.451 34.133 88.064 0 121.515l-374.101 365.227z" />
<glyph unicode="&#xe60b;" glyph-name="right" d="M792.576 508.757l-436.907 425.984c-34.133 33.451-90.112 33.451-124.928 0-34.133-33.451-34.133-88.064 0-121.515l374.784-365.227-374.101-365.227c-34.133-33.451-34.133-88.064 0-121.515s90.112-33.451 124.928 0l436.907 425.984c34.133 33.451 34.133 88.064-0.683 121.515z" />
<glyph unicode="&#xe60c;" glyph-name="browser" d="M964.608 837.12h-905.216c-32.563 0-59.392-26.624-59.392-59.392v-634.266c0-32.768 26.829-59.392 59.392-59.392h905.216c32.768 0 59.392 26.829 59.392 59.392v634.266c0 32.768-26.829 59.392-59.392 59.392zM818.176 792.474c17.613 0 31.744-14.336 31.744-31.744s-14.336-31.744-31.744-31.744c-17.613 0-31.744 14.336-31.744 31.744s14.336 31.744 31.744 31.744zM708.608 792.474c17.613 0 31.744-14.336 31.744-31.744s-14.336-31.744-31.744-31.744c-17.613 0-31.744 14.336-31.744 31.744s14.336 31.744 31.744 31.744zM959.488 179.712c0-14.541-11.878-26.419-26.419-26.419h-842.138c-14.541 0-26.419 11.878-26.419 26.419v475.75c0 14.541 11.878 26.419 26.419 26.419h842.342c14.541 0 26.419-11.878 26.419-26.419v-475.75zM927.744 728.986c-17.613 0-31.744 14.336-31.744 31.744s14.336 31.744 31.744 31.744 31.744-14.336 31.744-31.744-14.131-31.744-31.744-31.744z" />
<glyph unicode="&#xe60d;" glyph-name="web" d="M998.81 854.528c0 21.094-16.998 38.093-38.093 38.093h-897.434c-20.89 0-38.093-16.998-38.093-38.093v-617.062c0-21.094 16.998-38.093 38.093-38.093h897.434c21.094 0 38.093 16.998 38.093 38.093v502.374c0 20.89-16.998 38.093-38.093 38.093s-38.093-16.998-38.093-38.093v-464.282h-821.453v541.082h859.546c21.094-0.205 38.093 16.998 38.093 37.888zM250.47 32.666c0-20.89 16.998-38.093 38.093-38.093h446.874c21.094 0 38.093 16.998 38.093 38.093 0 20.89-16.998 38.093-38.093 38.093h-78.643v66.355c0 21.094-16.998 38.093-38.093 38.093s-38.093-16.998-38.093-38.093v-66.355h-137.421v66.355c0 21.094-16.998 38.093-38.093 38.093s-38.093-16.998-38.093-38.093v-66.355h-78.643c-20.89 0-37.888-16.998-37.888-38.093z" />
</font>
</defs>
</svg>
